<?xml version="1.0" standalone="no"?>
<!DOCTYPE svg PUBLIC "-//W3C//DTD SVG 1.1//EN" "http://www.w3.org/Graphics/SVG/1.1/DTD/svg11.dtd" >
<svg xmlns="http://www.w3.org/2000/svg">
<metadata>
This is a custom SVG webfont generated by Font Squirrel.
Copyright   : 2011
Designer    : Chandler Van De Water
</metadata>
<defs>
<font id="CubanoRegular" horiz-adv-x="1228" >
<font-face units-per-em="2048" ascent="1638" descent="-410" />
<missing-glyph horiz-adv-x="614" />
<glyph unicode=" "  horiz-adv-x="614" />
<glyph unicode="&#x09;" horiz-adv-x="614" />
<glyph unicode="&#xa0;" horiz-adv-x="614" />
<glyph unicode="!" horiz-adv-x="679" d="M123 1372l41 -860q4 -61 61 -61h230q57 0 61 61l41 860q4 61 -61 62h-312q-65 -1 -61 -62zM164 61q0 -61 61 -61h230q61 0 61 61v230q0 61 -61 61h-230q-61 0 -61 -61v-230z" />
<glyph unicode="&#x22;" horiz-adv-x="802" d="M61 1475l41 -332q10 -61 62 -62h106q51 0 62 62l41 332q6 61 -62 61h-188q-68 0 -62 -61zM430 1475l41 -332q10 -61 61 -62h107q51 0 61 62l41 332q6 61 -61 61h-188q-68 0 -62 -61z" />
<glyph unicode="#" d="M-31 477l17 82q12 55 69 55h213q16 0 23 19l35 164q4 23 -19 22h-194q-68 0 -56 68l17 82q12 55 67 55h213q18 0 23 18l72 336q12 55 67 56h80q68 0 55 -68l-67 -319q-6 -23 18 -23h162q18 0 22 18l72 336q12 55 68 56h80q68 0 55 -68l-68 -319q-6 -23 19 -23h192 q68 0 56 -68l-17 -82q-12 -55 -67 -55h-213q-16 0 -23 -18l-35 -164q-4 -23 19 -23h194q68 0 56 -67l-17 -82q-12 -55 -67 -55h-213q-20 0 -23 -19l-72 -336q-12 -55 -67 -55h-80q-68 0 -55 68l67 319q6 23 -18 23h-162q-20 0 -23 -19l-71 -336q-12 -55 -68 -55h-80 q-68 0 -55 68l68 319q6 23 -19 23h-192q-70 -1 -58 67zM496 637q-4 -23 18 -23h164q16 0 22 19l35 164q4 23 -18 22h-164q-16 0 -23 -18z" />
<glyph unicode="$" horiz-adv-x="1185" d="M102 430q-4 53 50 66l217 51q55 12 63 -47q8 -76 41 -113t111 -35t109.5 37t21.5 74q-8 39 -56.5 68.5t-112 47t-136 50.5t-134 72.5t-103.5 118.5t-44 186q-2 33 5 73.5t29.5 108t86 126t160.5 85.5v127q0 61 61 61h229q61 0 62 -61v-131q262 -76 289 -371 q6 -53 -47 -66l-218 -53q-55 -14 -65 47q-27 131 -150 129q-51 -2 -75.5 -30.5t-16.5 -61.5q8 -41 73.5 -72.5t152 -62.5t172.5 -76t145 -134t61 -216q0 -20 -4 -53t-25.5 -86t-55 -100.5t-99 -91.5t-154.5 -64v-127q0 -61 -61 -62h-229q-61 -4 -62 60v135q-260 76 -291 391 z" />
<glyph unicode="%" horiz-adv-x="1327" d="M63.5 19.5q-10.5 19.5 10.5 52.5l962 1312q29 49 82 50h101q35 0 44 -19.5t-10 -52.5l-962 -1313q-31 -49 -82 -49h-100q-35 0 -45.5 19.5zM92 1124q0 84 61.5 145.5t145.5 61.5t145.5 -61.5t61.5 -145.5t-61.5 -145t-145.5 -61t-145.5 61t-61.5 145zM821 309 q0 84 61.5 145.5t145.5 61.5t145.5 -61.5t61.5 -145.5t-61.5 -145.5t-145.5 -61.5t-145.5 61.5t-61.5 145.5z" />
<glyph unicode="&#x26;" horiz-adv-x="1314" d="M56 371q1 92 58.5 192.5t164.5 181.5q20 12 4 29q-152 186 -103 402q31 139 144.5 225t308.5 67q184 -18 280.5 -142t65.5 -288q-23 -102 -73 -185t-152 -161q-16 -14 -2 -28l129 -148q12 -14 28 -2q57 45 90 78q47 41 86 -4l129 -148q39 -45 -4 -86q-51 -47 -94 -82 q-14 -14 -2 -28l43 -49q43 -47 -6 -86l-137 -107q-47 -39 -86 10l-45 56q-12 14 -29 4q-164 -109 -367 -109q-137 0 -241.5 65.5t-153.5 164.5q-37 86 -36 178zM410 315q33 -41 101.5 -40t131.5 40q18 12 4 29q-70 82 -137 164q-14 14 -27 4q-143 -107 -73 -197zM469 1104 q-8 -37 4 -68.5t62 -101.5q12 -16 28 -6q104 68 119 135q6 37 -17.5 78t-72.5 47t-82 -19.5t-41 -64.5z" />
<glyph unicode="'" horiz-adv-x="434" d="M61 1475l41 -332q10 -61 62 -62h106q51 0 62 62l41 332q6 61 -62 61h-188q-68 0 -62 -61z" />
<glyph unicode="(" horiz-adv-x="604" d="M41 649q0 -260 121 -501.5t301 -407.5q31 -27 55.5 -14.5t24.5 53.5v106q0 41 -31 78q-109 121 -171 304.5t-65 377.5q-2 199 61.5 389.5t174.5 313.5q31 37 31 75v115q0 41 -23.5 51t-52.5 -16q-182 -164 -304 -413t-122 -511z" />
<glyph unicode=")" horiz-adv-x="604" d="M61 -115v-106q0 -41 25 -53.5t55 14.5q180 166 301 407.5t121 501.5q0 262 -122 511t-304 413q-29 27 -52.5 16.5t-23.5 -51.5v-115q0 -39 31 -75q111 -123 174.5 -313.5t61.5 -389.5q-2 -195 -64.5 -378t-171.5 -304q-31 -37 -31 -78z" />
<glyph unicode="*" horiz-adv-x="819" d="M41 1243.5q-8 20.5 0 38.5l29 92q23 47 84 23l147 -62q25 -8 25 17l-15 164q0 29 15.5 48t38.5 19h94q51 0 51 -70l-12 -161q0 -27 22 -17l150 62q29 12 52 3t34 -32l28 -88v-2q4 -20 -10 -42t-43 -26l-158 -39q-27 -8 -8 -28l107 -125q23 -29 18.5 -56.5t-28.5 -37.5 l-68 -47q-16 -12 -41 -5t-43 33l-84 142q-14 23 -29 0l-86 -142q-16 -27 -40.5 -34t-43.5 6l-73 53h-2q-41 37 0 88l106 125q16 20 -8 26l-176 45q-25 9 -33 29.5z" />
<glyph unicode="+" horiz-adv-x="1429" d="M123 555v229q0 61 61 62h334q20 0 21 20v334q0 61 61 62h229q61 0 62 -62v-334q0 -20 20 -20h334q61 0 62 -62v-229q0 -61 -62 -61h-334q-20 0 -20 -21v-334q0 -61 -62 -61h-229q-61 0 -61 61v334q0 20 -21 21h-334q-61 0 -61 61z" />
<glyph unicode="," horiz-adv-x="485" d="M82 61q0 -61 61 -61h95q20 0 20 -20q-4 -86 -65 -158q-14 -16 -8.5 -31.5t26.5 -13.5q113 12 168 89t55 195v230q0 61 -61 61h-230q-61 0 -61 -61v-230z" />
<glyph unicode="-" horiz-adv-x="1347" d="M143 555v229q0 61 62 62h938q61 0 61 -62v-229q0 -61 -61 -61h-938q-62 0 -62 61z" />
<glyph unicode="." horiz-adv-x="485" d="M82 61q0 -61 61 -61h230q61 0 61 61v230q0 61 -61 61h-230q-61 0 -61 -61v-230z" />
<glyph unicode="/" d="M199 -133l610 1655q18 49 72 49h100q35 0 48 -19.5t1 -52.5l-610 -1655q-18 -49 -72 -49h-100q-35 0 -48 19.5t-1 52.5z" />
<glyph unicode="0" d="M100 717q0 76 2 130t13.5 139t31 145.5t57.5 128t91 110.5t135 71.5t184 28.5q104 0 186.5 -28.5t135.5 -71.5t91 -112.5t57.5 -130t29.5 -145.5t12 -137t2 -128q0 -84 -5 -150.5t-20.5 -162t-50 -167t-89 -137t-143.5 -101.5t-205.5 -36t-206 36t-143.5 101.5t-89 137 t-50 167t-20.5 162t-5.5 150.5zM453 717q0 -80 1 -123t9 -105.5t24.5 -94.5t48 -55.5t78.5 -23.5q55 0 89 31t49.5 95.5t19.5 123t4 152.5q0 80 -1 123t-9 105.5t-24.5 94t-48 55t-79.5 23.5q-55 0 -88.5 -30.5t-49 -95t-19.5 -123t-4 -152.5z" />
<glyph unicode="1" horiz-adv-x="778" d="M68 1085q0 -61 61 -61h88q61 0 62 -61v-902q0 -61 61 -61h227q61 0 62 61v1311q0 61 -62 62h-170q-14 0 -26 -7l-262 -157q-41 -23 -41 -74v-111z" />
<glyph unicode="2" horiz-adv-x="1167" d="M70 61v177q0 131 62.5 242.5t152.5 185t181 132t160.5 111t78.5 95.5q10 49 -16.5 81.5t-84.5 32.5q-135 0 -158 -137q-10 -63 -67 -51l-234 51q-55 12 -53 68q4 53 16.5 101t48.5 109.5t88 105.5t145 74.5t214 30.5q129 0 224.5 -38.5t141.5 -91t72.5 -120t30.5 -105.5 t4 -68q0 -94 -40 -174t-101.5 -132.5t-136 -102.5t-141 -86t-120 -83t-69.5 -94q-6 -23 18 -23h517q61 0 61 -61v-230q0 -61 -61 -61h-873q-61 0 -61 61z" />
<glyph unicode="3" horiz-adv-x="1208" d="M113 385q-2 55 53 68l233 51q57 12 68 -51q23 -137 158 -138q63 0 98 51.5t4 112.5q-47 88 -201 107q-61 6 -61 61v139q0 55 61 62q154 18 201 106q33 61 -3 112.5t-99 51.5q-135 0 -158 -137q-10 -63 -68 -51l-233 51q-55 12 -53 68q4 53 16 101t48 109.5t88 105.5 t145.5 74.5t214.5 30.5q236 0 360.5 -129t116.5 -319q-6 -111 -49 -186.5t-97 -108.5q-25 -10 0 -20q53 -33 96.5 -109t49.5 -186q8 -190 -117 -319.5t-360 -129.5q-121 0 -214.5 31t-145.5 75t-88 105.5t-48 109.5t-16 101z" />
<glyph unicode="4" d="M39 553v287l2 4q2 6 5 16t5 21l176 350q25 49 70 49h225q35 0 50.5 -19.5t0.5 -50.5l-172 -344q-6 -23 17 -22h200q61 0 62 61v508q0 61 61 62h230q61 0 61 -62v-508q0 -61 62 -61h24q61 0 62 -62v-229q0 -61 -62 -61h-24q-61 0 -62 -62v-369q0 -61 -61 -61h-230 q-61 0 -61 61v369q0 61 -62 62h-518q-61 0 -61 61z" />
<glyph unicode="5" horiz-adv-x="1208" d="M102 385q-2 55 54 68l233 51q57 12 68 -51q23 -137 157 -138q70 0 104 45.5t25 100.5q-23 158 -254 157h-290q-61 0 -62 62v692q0 61 62 62h825q61 0 61 -62v-229q0 -61 -61 -62h-514q-20 0 -21 -20v-41q0 -61 62 -62h63q135 0 238.5 -50t160 -128t84 -159.5t27.5 -159.5 q0 -86 -27.5 -169t-84 -160t-159.5 -123t-239 -46q-121 0 -214 31t-145 75t-88 105.5t-48.5 109.5t-16.5 101z" />
<glyph unicode="6" horiz-adv-x="1126" d="M49 461q0 223 124 502.5t343 445.5q33 25 76 25h307q43 0 49 -20.5t-26 -47.5q-307 -270 -377 -440q-4 -12 2 -18.5t22 -4.5q231 23 369.5 -108t138.5 -334q0 -213 -134 -355.5t-380 -142.5t-380 142.5t-134 355.5zM401 424q0 -154 162 -154q72 0 117 39t45 115 q0 154 -162 154q-72 0 -117 -39t-45 -115z" />
<glyph unicode="7" horiz-adv-x="1167" d="M43 1143v229q0 61 61 62h1029q72 0 41 -74l-588 -1313q-20 -47 -72 -47h-285q-35 0 -47 19.5t2 52.5l439 985q10 25 -15 24h-504q-61 1 -61 62z" />
<glyph unicode="8" d="M100 469q0 211 136 326q-88 115 -89 280q0 186 115 290.5t352 104.5q227 0 347 -106.5t120 -288.5q0 -164 -90 -284q137 -117 137 -322q0 -211 -135 -356.5t-378.5 -145.5t-379 145.5t-135.5 356.5zM453 469q0 -74 43 -112t118 -38q72 0 117 39t45 111q0 150 -162 149 q-72 0 -116.5 -37.5t-44.5 -111.5zM467 1038q0 -66 39 -100.5t108 -34.5q66 0 107 35t41 100q0 141 -148 142q-66 0 -106.5 -36t-40.5 -106z" />
<glyph unicode="9" horiz-adv-x="1146" d="M59 973q0 213 134.5 355t380 142t379.5 -142t134 -355q0 -184 -131 -445.5t-321 -492.5q-29 -35 -74 -35h-301q-41 0 -50 22.5t19 51.5q96 98 194.5 223t139.5 213q10 25 -22 25q-236 8 -359 123.5t-123 314.5zM412 1010q0 -154 161 -154q72 0 117 39t45 115 q0 154 -162 153q-72 0 -116.5 -38.5t-44.5 -114.5z" />
<glyph unicode=":" horiz-adv-x="557" d="M102 61q0 -61 62 -61h229q61 0 62 61v230q0 61 -62 61h-229q-61 0 -62 -61v-230zM102 610q0 -61 62 -61h229q61 0 62 61v230q0 61 -62 61h-229q-61 0 -62 -61v-230z" />
<glyph unicode=";" horiz-adv-x="516" d="M82 61q0 -61 61 -61h95q20 0 20 -20q-4 -86 -65 -158q-14 -16 -8.5 -31.5t26.5 -13.5q119 12 171 79.5t52 204.5v230q0 61 -61 61h-230q-61 0 -61 -61v-230zM82 610q0 -61 61 -61h230q61 0 61 61v230q0 61 -61 61h-230q-61 0 -61 -61v-230z" />
<glyph unicode="=" horiz-adv-x="1347" d="M143 283v229q0 61 62 61h938q61 0 61 -61v-229q0 -61 -61 -62h-938q-62 1 -62 62zM143 797v229q0 61 62 61h938q61 0 61 -61v-229q0 -61 -61 -62h-938q-62 1 -62 62z" />
<glyph unicode="?" d="M133 1049q4 53 16.5 101t48 109.5t88 105.5t145.5 74.5t214 30.5q129 0 224.5 -38.5t141.5 -91t72.5 -120t30.5 -105.5t4 -68q0 -117 -39 -204t-88 -129t-105.5 -97.5t-78.5 -108.5q-20 -51 -70 -51h-231q-31 0 -47.5 18.5t-9.5 48.5q16 94 61 160t90 96.5t88 81.5 t57 121q10 51 -16.5 93t-83.5 42q-135 0 -158 -137q-10 -63 -67 -51l-234 51q-55 13 -53 68zM438 61q0 -61 62 -61h229q61 0 62 61v230q0 61 -62 61h-229q-61 0 -62 -61v-230z" />
<glyph unicode="@" horiz-adv-x="1712" d="M102 717q0 311 221.5 532t532.5 221t532.5 -221t221.5 -532q0 -203 -82 -332t-260 -129q-131 0 -208 69.5t-106 153.5q-6 14 -8 -2q-16 -49 -89 -70.5t-157 3.5q-82 27 -131 114.5t-49 192.5q0 137 86 227t221 90q39 0 70 -12t31 -31q0 43 67 43h86q68 0 68 -65v-252 q0 -123 34 -180.5t85 -57.5q121 0 121 238q0 219 -156 374.5t-379 155.5q-219 0 -373.5 -155.5t-154.5 -374.5q0 -221 151.5 -364.5t368.5 -127.5q68 6 127 22.5t88 -30.5l51 -76q39 -57 -16 -92q-76 -47 -248 -55q-311 -14 -528.5 198t-217.5 525zM739 717q-4 -49 21.5 -78 t66.5 -29t72 28t35 79q6 53 -18.5 81.5t-67.5 28.5q-41 0 -73 -28.5t-36 -81.5z" />
<glyph unicode="A" horiz-adv-x="1187" d="M92 70q0 -70 62 -70h229q61 0 61 61v179q0 61 62 61h176q61 0 61 -61v-179q0 -61 62 -61h229q61 0 62 70v868q0 90 -7.5 155.5t-37 141.5t-81.5 124t-147.5 79.5t-228.5 31.5t-228.5 -31.5t-147.5 -79.5t-82 -124t-37 -141.5t-7 -155.5v-868zM444 715v223q0 82 28 114.5 t122 32.5t121.5 -32.5t27.5 -114.5v-221q0 -61 -61 -64h-176q-62 1 -62 62z" />
<glyph unicode="B" horiz-adv-x="1200" d="M102 61v1309q0 59 62 64h430q285 0 408.5 -118t123.5 -374q0 -182 -104 -297q63 -31 104 -102.5t41 -165.5q0 -199 -109.5 -288t-387.5 -89h-506q-62 0 -62 61zM453 352q0 -61 61 -61h129q82 0 115 19.5t33 87t-32 89t-112 21.5h-133q-61 0 -61 -62v-94zM455 864 q0 -61 61 -61h111q82 0 114.5 25.5t32.5 113.5t-32.5 113.5t-114.5 25.5h-111q-61 0 -61 -61v-156z" />
<glyph unicode="C" horiz-adv-x="1146" d="M82 461v512q0 55 6 105t36 127t81 131.5t152.5 94t238.5 39.5q125 0 219 -32.5t147.5 -79.5t87 -112.5t45 -117t13.5 -108.5q4 -47 -45 -57l-227 -52q-31 -6 -54.5 12.5t-27.5 51.5q-8 72 -43 107.5t-115 35.5q-104 0 -133 -58.5t-29 -195.5v-295q0 -137 29 -195.5 t133 -58.5q80 0 112.5 36t43.5 112q4 33 26.5 50t52.5 9l232 -51q49 -10 45 -59q-2 -55 -13.5 -107.5t-45 -117t-87 -111.5t-147.5 -80t-219 -33q-137 0 -238.5 40t-152.5 94.5t-81 131t-36 127t-6 105.5z" />
<glyph unicode="D" horiz-adv-x="1214" d="M102 61v1309q0 59 62 64h457q283 0 397.5 -117t114.5 -375v-448q0 -258 -115 -376t-397 -118h-457q-62 0 -62 61zM455 414q0 -61 61 -62h111q80 0 113.5 27t33.5 113v450q0 88 -32.5 113.5t-114.5 25.5h-111q-61 0 -61 -61v-606z" />
<glyph unicode="E" horiz-adv-x="1140" d="M102 61q0 -61 62 -61h860q61 0 61 61v230q0 61 -61 61h-496q-61 0 -61 62v65q0 61 61 62h318q61 0 61 61v229q0 61 -61 62h-318q-61 0 -61 61v66q0 61 61 61h496q61 0 61 62v229q0 61 -61 62h-860q-61 0 -62 -62v-1311z" />
<glyph unicode="F" horiz-adv-x="1126" d="M102 61q0 -61 62 -61h242q61 0 61 61v418q0 61 61 62h338q61 0 62 61v229q0 61 -62 62h-338q-61 0 -61 61v66q0 61 61 61h516q61 0 62 62v229q0 61 -62 62h-880q-61 0 -62 -62v-1311z" />
<glyph unicode="G" horiz-adv-x="1187" d="M82 461v512q0 55 6 105t36 127t81 131.5t152.5 94t238.5 39.5q123 0 217 -31.5t146.5 -76.5t87 -109.5t46.5 -115.5q15 -70 15 -113q0 -52 -53 -63l-232 -52q-10 -2 -18 -2q-44 0 -49 56q-6 80 -41 117.5t-119 37.5q-104 0 -133 -58.5t-29 -195.5v-295q0 -137 29 -195.5 t133 -58.5q55 0 89 15.5t49.5 47.5t19.5 60.5t4 73.5h-119q-61 0 -61 61v164q0 61 61 62h410q61 0 61 -62v-276q0 -55 -6 -105.5t-36 -127t-81 -131t-152.5 -94.5t-238.5 -40t-238.5 40t-152.5 94.5t-81 131t-36 127t-6 105.5z" />
<glyph unicode="H" d="M102 61q0 -61 62 -61h229q61 0 62 61v324q0 61 61 61h197q61 0 61 -61v-324q0 -61 62 -61h229q61 0 61 61v1311q0 61 -61 62h-229q-61 0 -62 -62v-512q0 -61 -61 -61h-197q-61 0 -61 61v512q0 61 -62 62h-229q-61 0 -62 -62v-1311z" />
<glyph unicode="I" horiz-adv-x="552" d="M102 61q0 -61 62 -61h225q61 0 62 61v1311q0 61 -62 62h-225q-61 0 -62 -62v-1311z" />
<glyph unicode="J" horiz-adv-x="1138" d="M20 414q-4 47 46 57l227 51q31 6 54.5 -12t27.5 -51q8 -72 43 -108t114 -36q104 0 133 58.5t29 195.5v801q0 27 17.5 45.5t46.5 18.5h225q29 0 46.5 -18.5t17.5 -45.5v-909q0 -55 -6.5 -105.5t-36 -127t-81 -131t-152.5 -94.5t-239 -40q-125 0 -219 33t-147 80t-87 112.5 t-45.5 117t-13.5 108.5z" />
<glyph unicode="K" horiz-adv-x="1275" d="M102 61v1311q0 61 62 62h233q61 0 62 -62v-411q0 -14 8 -17.5t16 8.5l322 443q27 39 74 39h303q39 0 50 -21.5t-11 -54.5l-414 -570q-10 -16 0 -28l446 -686q13 -20 14 -36q0 -9 -4 -16q-11 -22 -49 -22h-307q-47 0 -73 41l-254 389q-14 20 -29 0l-84 -115q-8 -10 -8 -26 v-228q0 -61 -62 -61h-233q-62 0 -62 61z" />
<glyph unicode="L" horiz-adv-x="1058" d="M102 61q0 -61 62 -61h809q61 0 61 61v230q0 61 -61 61h-457q-61 0 -61 62v958q0 61 -62 62h-229q-61 0 -62 -62v-1311z" />
<glyph unicode="M" horiz-adv-x="1622" d="M102 61q0 -61 62 -61h229q61 0 62 61v807q0 16 14 13q6 -2 8 -11l199 -817q12 -53 67 -53h136q55 0 67 53l199 817q4 14 16 9q6 -2 6 -11v-807q0 -61 62 -61h229q61 0 62 61v1311q0 61 -62 62h-424q-53 0 -65 -56l-146 -596q-2 -10 -7 -14t-10 0t-7 14l-146 596 q-12 55 -65 56h-424q-61 0 -62 -62v-1311z" />
<glyph unicode="N" horiz-adv-x="1294" d="M102 61q0 -61 62 -61h229q61 0 62 61v662q0 14 9 17t15 -11l279 -682q20 -47 71 -47h301q61 0 62 61v1311q0 61 -62 62h-229q-61 0 -61 -62v-661q0 -14 -9.5 -17.5t-15.5 11.5l-278 681q-20 47 -72 48h-301q-61 0 -62 -62v-1311z" />
<glyph unicode="O" horiz-adv-x="1191" d="M82 461v512q0 55 6 105t36 127t81 131.5t152.5 94t238.5 39.5t238.5 -39.5t152.5 -94t81 -131.5t36 -127t6 -105v-512q0 -55 -6 -105.5t-36 -127t-81 -131t-152.5 -94.5t-238.5 -40t-238.5 40t-152.5 94.5t-81 131t-36 127t-6 105.5zM434 569q0 -137 29 -195.5t133 -58.5 t133 58.5t29 195.5v295q0 137 -29 195.5t-133 58.5t-133 -58.5t-29 -195.5v-295z" />
<glyph unicode="P" horiz-adv-x="1150" d="M102 61v1309q0 59 62 64h450q270 0 391 -119t121 -373t-120.5 -372.5t-391.5 -118.5h-98q-61 0 -61 -62v-328q0 -61 -62 -61h-229q-62 0 -62 61zM455 864q0 -61 61 -61h111q82 0 114.5 25.5t32.5 113.5t-32.5 113.5t-114.5 25.5h-111q-61 0 -61 -61v-156z" />
<glyph unicode="Q" horiz-adv-x="1198" d="M82 461v512q0 55 6 105t36 127t81 131.5t152.5 94t238.5 39.5t238.5 -39.5t152.5 -94t81 -131.5t36 -127t6 -105v-512q0 -92 -23 -174q-2 -16 7 -29l92 -98q20 -20 19 -42q0 -23 -23 -46l-166 -158q-22 -22 -43 -22l-43 22l-78 78q-12 12 -29 6q-94 -35 -227 -35 q-137 0 -238.5 40t-152.5 94.5t-81 131t-36 127t-6 105.5zM434 569q0 -137 29 -195.5t133 -58.5t133 58.5t29 195.5v295q0 137 -29 195.5t-133 58.5t-133 -58.5t-29 -195.5v-295z" />
<glyph unicode="R" horiz-adv-x="1214" d="M102 63v1307q0 27 18.5 45.5t45.5 18.5h448q270 0 391 -119t121 -373q0 -291 -155 -401q-12 -10 -6 -27l217 -403q12 -21 11 -41q0 -18 -10 -35q-22 -35 -69 -35h-233q-35 0 -47 29l-213 411q-6 10 -17 11h-82q-27 0 -45 -18.5t-18 -45.5v-324q0 -27 -18.5 -45t-45.5 -18 h-229q-27 0 -45.5 18t-18.5 45zM459 866q0 -27 18.5 -45t44.5 -18h105q82 0 114.5 25.5t32.5 113.5t-32.5 113.5t-114.5 25.5h-105q-27 0 -45 -18.5t-18 -44.5v-152z" />
<glyph unicode="S" horiz-adv-x="1171" d="M39 416q0 52 53 63l232 51q10 2 18 2q44 0 49 -55q6 -72 56.5 -113.5t124 -41.5t122.5 35q41 30 41 65q0 7 -2 14q-10 45 -81.5 83t-166 72t-187.5 83t-156.5 143t-63.5 225q0 29 6 69t36 105.5t79 119t146 92t226 38.5q121 0 216.5 -30.5t150.5 -74.5t93 -104.5 t53.5 -110.5t19.5 -102q2 -55 -53 -67l-234 -51q-9 -2 -17 -2q-42 0 -50 53q-10 63 -58.5 100t-120.5 37q-57 0 -92 -29q-30 -24 -29 -54q0 -5 1 -11q6 -37 59 -69.5t128 -58.5t161 -69t158.5 -93t120.5 -138t48 -199q0 -27 -10 -68.5t-46 -106t-92 -118t-162.5 -92.5 t-244.5 -39q-123 0 -219 32t-151.5 78t-93 108.5t-51.5 115.5q-17 70 -17 113z" />
<glyph unicode="T" horiz-adv-x="1212" d="M20 1143q0 -61 62 -62h287q61 0 61 -61v-959q0 -61 62 -61h229q61 0 61 61v959q0 61 62 61h286q61 0 62 62v229q0 61 -62 62h-1048q-61 0 -62 -62v-229z" />
<glyph unicode="U" horiz-adv-x="1208" d="M90 461v911q0 61 62 62h229q61 0 61 -62v-803q0 -137 29 -195.5t133.5 -58.5t133 58.5t28.5 195.5v803q0 61 61 62h230q61 0 61 -62v-911q0 -55 -6 -105.5t-35.5 -127t-81 -131t-153 -94.5t-238.5 -40t-238.5 40t-152.5 94.5t-81 131t-36 127t-6 105.5z" />
<glyph unicode="V" horiz-adv-x="1187" d="M37 1366l299 -1313q12 -53 67 -53h381q55 0 68 53l299 1313q3 13 3 23q0 44 -56 45h-244q-55 0 -68 -54l-180 -786q-2 -8 -7 -12t-10 0t-7 12l-181 786q-12 53 -67 54h-244q-56 0 -56 -45q0 -10 3 -23z" />
<glyph unicode="W" horiz-adv-x="1658" d="M29 1366l252 -1313q10 -53 67 -53h289q55 0 68 53l112 504q2 10 7 14t10.5 0t7.5 -14l112 -504q12 -53 68 -53h289q57 0 67 53l252 1313q2 10 2 19q0 48 -57 49h-244q-61 0 -67 -54l-117 -854q-2 -10 -7 -14t-10.5 0t-7.5 14l-137 854q-10 53 -67 54h-177q-57 0 -67 -54 l-137 -854q-2 -10 -7.5 -14t-10.5 0t-7 14l-117 854q-6 53 -67 54h-244q-57 0 -57 -49q0 -9 2 -19z" />
<glyph unicode="X" d="M12 20q-5 8 -5 19q0 15 11 35l394 665q8 14 0 29l-349 592q-18 33 -5.5 53.5t48.5 20.5h254q51 0 74 -41l166 -285q14 -25 29 0l168 285q23 41 73 41h256q35 0 47.5 -20.5t-6.5 -53.5l-344 -602q-8 -14 0 -29l387 -655q11 -20 11 -35q0 -10 -4 -19q-12 -20 -50 -20h-254 q-51 0 -73 41l-203 344q-14 23 -27 0l-196 -342q-23 -43 -74 -43h-279q-37 0 -49 20z" />
<glyph unicode="Y" horiz-adv-x="1230" d="M38 1414q-6 -9 -7 -22q0 -13 8 -30l369 -819q4 -8 4 -25v-457q0 -61 61 -61h287q61 0 61 61v457q0 16 4 25l367 819q7 17 7 30q0 12 -6 22q-13 19 -48 20h-293q-51 0 -70 -48l-151 -380q-14 -33 -29 0l-151 380q-18 47 -70 48h-295q-35 -1 -48 -20z" />
<glyph unicode="Z" horiz-adv-x="1208" d="M6 20q-5 8 -5 19q0 15 11 35l559 983q14 25 -14 24h-391q-61 0 -62 62v229q0 61 62 62h987q37 0 49 -21q5 -8 5 -18q0 -15 -11 -35l-569 -983q-14 -25 14 -25h432q61 0 62 -61v-230q0 -61 -62 -61h-1018q-37 0 -49 20z" />
<glyph unicode="[" horiz-adv-x="573" d="M61 -348q0 -61 62 -62h328q61 0 61 62v123q0 61 -61 61h-123q-61 0 -62 62v1474q0 61 62 62h123q61 0 61 61v82q0 61 -61 61h-328q-61 0 -62 -61v-1925z" />
<glyph unicode="\" d="M199 1501q-12 33 1 52.5t48 19.5h100q53 0 72 -49l610 -1655q12 -33 -1 -52.5t-48 -19.5h-100q-53 0 -72 49z" />
<glyph unicode="]" horiz-adv-x="573" d="M61 -225v-123q0 -61 62 -62h328q61 0 61 62v1925q0 61 -61 61h-328q-61 0 -62 -61v-82q0 -61 62 -61h123q61 0 61 -62v-1474q0 -61 -61 -62h-123q-62 0 -62 -61z" />
<glyph unicode="^" d="M162 1040q-43 47 0 90l403 404q41 41 86 0l404 -404q45 -43 0 -90l-58 -55q-43 -43 -86 0l-293 289q-8 16 -24 0l-291 -289q-41 -43 -84 0z" />
<glyph unicode="_" d="M23 -184q0 61 61 61h1061q61 0 61 -61v-82q0 -61 -61 -62h-1061q-61 0 -61 62v82z" />
<glyph unicode="`" horiz-adv-x="608" d="M41 1535q-8 -24 27 -52l235 -189q33 -27 76 -26h135q41 0 51 22.5t-16 52.5l-164 183q-33 33 -76 33h-215q-45 0 -53 -24z" />
<glyph unicode="a" horiz-adv-x="1187" d="M92 70q0 -70 62 -70h229q61 0 61 61v179q0 61 62 61h176q61 0 61 -61v-179q0 -61 62 -61h229q61 0 62 70v868q0 90 -7.5 155.5t-37 141.5t-81.5 124t-147.5 79.5t-228.5 31.5t-228.5 -31.5t-147.5 -79.5t-82 -124t-37 -141.5t-7 -155.5v-868zM444 715v223q0 82 28 114.5 t122 32.5t121.5 -32.5t27.5 -114.5v-221q0 -61 -61 -64h-176q-62 1 -62 62z" />
<glyph unicode="b" horiz-adv-x="1200" d="M102 61v1309q0 59 62 64h430q285 0 408.5 -118t123.5 -374q0 -182 -104 -297q63 -31 104 -102.5t41 -165.5q0 -199 -109.5 -288t-387.5 -89h-506q-62 0 -62 61zM453 352q0 -61 61 -61h129q82 0 115 19.5t33 87t-32 89t-112 21.5h-133q-61 0 -61 -62v-94zM455 864 q0 -61 61 -61h111q82 0 114.5 25.5t32.5 113.5t-32.5 113.5t-114.5 25.5h-111q-61 0 -61 -61v-156z" />
<glyph unicode="c" horiz-adv-x="1146" d="M82 461v512q0 55 6 105t36 127t81 131.5t152.5 94t238.5 39.5q125 0 219 -32.5t147.5 -79.5t87 -112.5t45 -117t13.5 -108.5q4 -47 -45 -57l-227 -52q-31 -6 -54.5 12.5t-27.5 51.5q-8 72 -43 107.5t-115 35.5q-104 0 -133 -58.5t-29 -195.5v-295q0 -137 29 -195.5 t133 -58.5q80 0 112.5 36t43.5 112q4 33 26.5 50t52.5 9l232 -51q49 -10 45 -59q-2 -55 -13.5 -107.5t-45 -117t-87 -111.5t-147.5 -80t-219 -33q-137 0 -238.5 40t-152.5 94.5t-81 131t-36 127t-6 105.5z" />
<glyph unicode="d" horiz-adv-x="1214" d="M102 61v1309q0 59 62 64h457q283 0 397.5 -117t114.5 -375v-448q0 -258 -115 -376t-397 -118h-457q-62 0 -62 61zM455 414q0 -61 61 -62h111q80 0 113.5 27t33.5 113v450q0 88 -32.5 113.5t-114.5 25.5h-111q-61 0 -61 -61v-606z" />
<glyph unicode="e" horiz-adv-x="1140" d="M102 61q0 -61 62 -61h860q61 0 61 61v230q0 61 -61 61h-496q-61 0 -61 62v65q0 61 61 62h318q61 0 61 61v229q0 61 -61 62h-318q-61 0 -61 61v66q0 61 61 61h496q61 0 61 62v229q0 61 -61 62h-860q-61 0 -62 -62v-1311z" />
<glyph unicode="f" horiz-adv-x="1126" d="M102 61q0 -61 62 -61h242q61 0 61 61v418q0 61 61 62h338q61 0 62 61v229q0 61 -62 62h-338q-61 0 -61 61v66q0 61 61 61h516q61 0 62 62v229q0 61 -62 62h-880q-61 0 -62 -62v-1311z" />
<glyph unicode="g" horiz-adv-x="1187" d="M82 461v512q0 55 6 105t36 127t81 131.5t152.5 94t238.5 39.5q123 0 217 -31.5t146.5 -76.5t87 -109.5t46.5 -115.5q15 -70 15 -113q0 -52 -53 -63l-232 -52q-10 -2 -18 -2q-44 0 -49 56q-6 80 -41 117.5t-119 37.5q-104 0 -133 -58.5t-29 -195.5v-295q0 -137 29 -195.5 t133 -58.5q55 0 89 15.5t49.5 47.5t19.5 60.5t4 73.5h-119q-61 0 -61 61v164q0 61 61 62h410q61 0 61 -62v-276q0 -55 -6 -105.5t-36 -127t-81 -131t-152.5 -94.5t-238.5 -40t-238.5 40t-152.5 94.5t-81 131t-36 127t-6 105.5z" />
<glyph unicode="h" d="M102 61q0 -61 62 -61h229q61 0 62 61v324q0 61 61 61h197q61 0 61 -61v-324q0 -61 62 -61h229q61 0 61 61v1311q0 61 -61 62h-229q-61 0 -62 -62v-512q0 -61 -61 -61h-197q-61 0 -61 61v512q0 61 -62 62h-229q-61 0 -62 -62v-1311z" />
<glyph unicode="i" horiz-adv-x="552" d="M102 61q0 -61 62 -61h225q61 0 62 61v1311q0 61 -62 62h-225q-61 0 -62 -62v-1311z" />
<glyph unicode="j" horiz-adv-x="1138" d="M20 414q-4 47 46 57l227 51q31 6 54.5 -12t27.5 -51q8 -72 43 -108t114 -36q104 0 133 58.5t29 195.5v801q0 27 17.5 45.5t46.5 18.5h225q29 0 46.5 -18.5t17.5 -45.5v-909q0 -55 -6.5 -105.5t-36 -127t-81 -131t-152.5 -94.5t-239 -40q-125 0 -219 33t-147 80t-87 112.5 t-45.5 117t-13.5 108.5z" />
<glyph unicode="k" horiz-adv-x="1275" d="M102 61v1311q0 61 62 62h233q61 0 62 -62v-411q0 -14 8 -17.5t16 8.5l322 443q27 39 74 39h303q39 0 50 -21.5t-11 -54.5l-414 -570q-10 -16 0 -28l446 -686q13 -20 14 -36q0 -9 -4 -16q-11 -22 -49 -22h-307q-47 0 -73 41l-254 389q-14 20 -29 0l-84 -115q-8 -10 -8 -26 v-228q0 -61 -62 -61h-233q-62 0 -62 61z" />
<glyph unicode="l" horiz-adv-x="1058" d="M102 61q0 -61 62 -61h809q61 0 61 61v230q0 61 -61 61h-457q-61 0 -61 62v958q0 61 -62 62h-229q-61 0 -62 -62v-1311z" />
<glyph unicode="m" horiz-adv-x="1622" d="M102 61q0 -61 62 -61h229q61 0 62 61v807q0 16 14 13q6 -2 8 -11l199 -817q12 -53 67 -53h136q55 0 67 53l199 817q4 14 16 9q6 -2 6 -11v-807q0 -61 62 -61h229q61 0 62 61v1311q0 61 -62 62h-424q-53 0 -65 -56l-146 -596q-2 -10 -7 -14t-10 0t-7 14l-146 596 q-12 55 -65 56h-424q-61 0 -62 -62v-1311z" />
<glyph unicode="n" horiz-adv-x="1294" d="M102 61q0 -61 62 -61h229q61 0 62 61v662q0 14 9 17t15 -11l279 -682q20 -47 71 -47h301q61 0 62 61v1311q0 61 -62 62h-229q-61 0 -61 -62v-661q0 -14 -9.5 -17.5t-15.5 11.5l-278 681q-20 47 -72 48h-301q-61 0 -62 -62v-1311z" />
<glyph unicode="o" horiz-adv-x="1191" d="M82 461v512q0 55 6 105t36 127t81 131.5t152.5 94t238.5 39.5t238.5 -39.5t152.5 -94t81 -131.5t36 -127t6 -105v-512q0 -55 -6 -105.5t-36 -127t-81 -131t-152.5 -94.5t-238.5 -40t-238.5 40t-152.5 94.5t-81 131t-36 127t-6 105.5zM434 569q0 -137 29 -195.5t133 -58.5 t133 58.5t29 195.5v295q0 137 -29 195.5t-133 58.5t-133 -58.5t-29 -195.5v-295z" />
<glyph unicode="p" horiz-adv-x="1150" d="M102 61v1309q0 59 62 64h450q270 0 391 -119t121 -373t-120.5 -372.5t-391.5 -118.5h-98q-61 0 -61 -62v-328q0 -61 -62 -61h-229q-62 0 -62 61zM455 864q0 -61 61 -61h111q82 0 114.5 25.5t32.5 113.5t-32.5 113.5t-114.5 25.5h-111q-61 0 -61 -61v-156z" />
<glyph unicode="q" horiz-adv-x="1198" d="M82 461v512q0 55 6 105t36 127t81 131.5t152.5 94t238.5 39.5t238.5 -39.5t152.5 -94t81 -131.5t36 -127t6 -105v-512q0 -92 -23 -174q-2 -16 7 -29l92 -98q20 -20 19 -42q0 -23 -23 -46l-166 -158q-22 -22 -43 -22l-43 22l-78 78q-12 12 -29 6q-94 -35 -227 -35 q-137 0 -238.5 40t-152.5 94.5t-81 131t-36 127t-6 105.5zM434 569q0 -137 29 -195.5t133 -58.5t133 58.5t29 195.5v295q0 137 -29 195.5t-133 58.5t-133 -58.5t-29 -195.5v-295z" />
<glyph unicode="r" horiz-adv-x="1214" d="M102 63v1307q0 27 18.5 45.5t45.5 18.5h448q270 0 391 -119t121 -373q0 -291 -155 -401q-12 -10 -6 -27l217 -403q12 -21 11 -41q0 -18 -10 -35q-22 -35 -69 -35h-233q-35 0 -47 29l-213 411q-6 10 -17 11h-82q-27 0 -45 -18.5t-18 -45.5v-324q0 -27 -18.5 -45t-45.5 -18 h-229q-27 0 -45.5 18t-18.5 45zM459 866q0 -27 18.5 -45t44.5 -18h105q82 0 114.5 25.5t32.5 113.5t-32.5 113.5t-114.5 25.5h-105q-27 0 -45 -18.5t-18 -44.5v-152z" />
<glyph unicode="s" horiz-adv-x="1171" d="M39 416q0 52 53 63l232 51q10 2 18 2q44 0 49 -55q6 -72 56.5 -113.5t124 -41.5t122.5 35q41 30 41 65q0 7 -2 14q-10 45 -81.5 83t-166 72t-187.5 83t-156.5 143t-63.5 225q0 29 6 69t36 105.5t79 119t146 92t226 38.5q121 0 216.5 -30.5t150.5 -74.5t93 -104.5 t53.5 -110.5t19.5 -102q2 -55 -53 -67l-234 -51q-9 -2 -17 -2q-42 0 -50 53q-10 63 -58.5 100t-120.5 37q-57 0 -92 -29q-30 -24 -29 -54q0 -5 1 -11q6 -37 59 -69.5t128 -58.5t161 -69t158.5 -93t120.5 -138t48 -199q0 -27 -10 -68.5t-46 -106t-92 -118t-162.5 -92.5 t-244.5 -39q-123 0 -219 32t-151.5 78t-93 108.5t-51.5 115.5q-17 70 -17 113z" />
<glyph unicode="t" horiz-adv-x="1212" d="M20 1143q0 -61 62 -62h287q61 0 61 -61v-959q0 -61 62 -61h229q61 0 61 61v959q0 61 62 61h286q61 0 62 62v229q0 61 -62 62h-1048q-61 0 -62 -62v-229z" />
<glyph unicode="u" horiz-adv-x="1208" d="M90 461v911q0 61 62 62h229q61 0 61 -62v-803q0 -137 29 -195.5t133.5 -58.5t133 58.5t28.5 195.5v803q0 61 61 62h230q61 0 61 -62v-911q0 -55 -6 -105.5t-35.5 -127t-81 -131t-153 -94.5t-238.5 -40t-238.5 40t-152.5 94.5t-81 131t-36 127t-6 105.5z" />
<glyph unicode="v" horiz-adv-x="1187" d="M37 1366l299 -1313q12 -53 67 -53h381q55 0 68 53l299 1313q3 13 3 23q0 44 -56 45h-244q-55 0 -68 -54l-180 -786q-2 -8 -7 -12t-10 0t-7 12l-181 786q-12 53 -67 54h-244q-56 0 -56 -45q0 -10 3 -23z" />
<glyph unicode="w" horiz-adv-x="1658" d="M29 1366l252 -1313q10 -53 67 -53h289q55 0 68 53l112 504q2 10 7 14t10.5 0t7.5 -14l112 -504q12 -53 68 -53h289q57 0 67 53l252 1313q2 10 2 19q0 48 -57 49h-244q-61 0 -67 -54l-117 -854q-2 -10 -7 -14t-10.5 0t-7.5 14l-137 854q-10 53 -67 54h-177q-57 0 -67 -54 l-137 -854q-2 -10 -7.5 -14t-10.5 0t-7 14l-117 854q-6 53 -67 54h-244q-57 0 -57 -49q0 -9 2 -19z" />
<glyph unicode="x" d="M12 20q-5 8 -5 19q0 15 11 35l394 665q8 14 0 29l-349 592q-18 33 -5.5 53.5t48.5 20.5h254q51 0 74 -41l166 -285q14 -25 29 0l168 285q23 41 73 41h256q35 0 47.5 -20.5t-6.5 -53.5l-344 -602q-8 -14 0 -29l387 -655q11 -20 11 -35q0 -10 -4 -19q-12 -20 -50 -20h-254 q-51 0 -73 41l-203 344q-14 23 -27 0l-196 -342q-23 -43 -74 -43h-279q-37 0 -49 20z" />
<glyph unicode="y" horiz-adv-x="1230" d="M38 1414q-6 -9 -7 -22q0 -13 8 -30l369 -819q4 -8 4 -25v-457q0 -61 61 -61h287q61 0 61 61v457q0 16 4 25l367 819q7 17 7 30q0 12 -6 22q-13 19 -48 20h-293q-51 0 -70 -48l-151 -380q-14 -33 -29 0l-151 380q-18 47 -70 48h-295q-35 -1 -48 -20z" />
<glyph unicode="z" horiz-adv-x="1208" d="M6 20q-5 8 -5 19q0 15 11 35l559 983q14 25 -14 24h-391q-61 0 -62 62v229q0 61 62 62h987q37 0 49 -21q5 -8 5 -18q0 -15 -11 -35l-569 -983q-14 -25 14 -25h432q61 0 62 -61v-230q0 -61 -62 -61h-1018q-37 0 -49 20z" />
<glyph unicode="{" horiz-adv-x="542" d="M41 586q0 -16 8 -29.5t14.5 -17.5t26.5 -19q37 -23 47 -93.5t2 -158.5t-5 -189.5t20.5 -186.5t83 -149.5t178.5 -78.5q31 -4 48 11.5t17 45.5v134q0 45 -51 65q-66 29 -82 118t1.5 191.5t17.5 210t-35 170.5q-4 6 -8.5 11.5t-5.5 9.5t-3 6t-2 5t-1 4t1 4t3 6t6.5 9.5 t7.5 10.5q35 61 36 169.5t-16.5 211t-1 193.5t81.5 120q51 20 51 66v133q0 31 -17.5 46t-47.5 11q-113 -14 -178.5 -77.5t-83 -148.5t-20.5 -186.5t5 -189.5t-2 -159.5t-47 -94.5q-41 -27 -47 -45q-2 -8 -2 -20v-119z" />
<glyph unicode="|" horiz-adv-x="368" d="M82 -287q0 -61 61 -61h82q61 0 62 61v1803q0 61 -62 61h-82q-61 0 -61 -61v-1803z" />
<glyph unicode="}" horiz-adv-x="542" d="M61 -145v-134q0 -31 17.5 -46t48.5 -11q113 14 178.5 78.5t83 149.5t20.5 186.5t-5.5 189.5t2 159t47.5 93q41 27 47 45q2 8 2 21v119q0 16 -8.5 29.5t-14.5 17.5t-26 18q-37 23 -47.5 94.5t-2 159.5t5.5 189.5t-20.5 186.5t-83 148.5t-178.5 77.5q-31 4 -48.5 -11.5 t-17.5 -45.5v-133q0 -45 52 -66q66 -29 82 -120t-1.5 -193.5t-16.5 -211t36 -169.5q18 -31 17 -32t-19 -34q-35 -63 -35 -170.5t17.5 -210t1 -191.5t-81.5 -118q-52 -20 -52 -65z" />
<glyph unicode="~" d="M76 743q49 -100 128 -144t158.5 -38t169 25.5t162 44t133 19.5t84.5 -52q10 -18 35 -25.5t45 0.5l123 39q63 23 39 80q-49 100 -127 144.5t-159 38t-169 -26t-160.5 -44t-133 -19t-87.5 52.5q-8 18 -32.5 26t-46.5 -2l-123 -39q-64 -21 -39 -80z" />
<glyph unicode="&#xa1;" horiz-adv-x="679" d="M123 -346l41 860q4 61 61 61h230q57 0 61 -61l41 -860q4 -61 -61 -62h-312q-65 1 -61 62zM164 735v230q0 61 61 61h230q61 0 61 -61v-230q0 -61 -61 -61h-230q-61 0 -61 61z" />
<glyph unicode="&#xa2;" horiz-adv-x="968" d="M61 717q0 70 4.5 121t24 121.5t54 117.5t101 87t158.5 50v170q0 49 52 50h67q51 0 51 -50v-172q98 -12 168 -52t103 -97t47 -106.5t16 -102.5q4 -45 -43 -57l-137 -33q-47 -8 -55 43q-6 74 -26.5 112.5t-72.5 53.5v-510q51 14 72 52t27 110q10 53 55 45l137 -33 q47 -10 43 -55q-2 -53 -16 -103.5t-47 -107t-102.5 -96t-168.5 -52.5v-174q0 -49 -51 -49h-67q-51 0 -52 49v172q-94 10 -161.5 50t-102.5 86t-53 119t-21.5 121t-3.5 120zM297 717q0 -125 18.5 -181.5t87.5 -74.5v514q-68 -18 -87 -74.5t-19 -183.5z" />
<glyph unicode="&#xa8;" d="M283 1311q0 47 34.5 81.5t81.5 34.5t82 -34.5t35 -81.5t-35 -82t-82 -35t-81.5 35t-34.5 82zM713 1311q0 47 34.5 81.5t82 34.5t82 -34.5t34.5 -81.5t-34.5 -82t-82 -35t-82 35t-34.5 82z" />
<glyph unicode="&#xaa;" horiz-adv-x="1187" d="M92 70q0 -70 62 -70h229q61 0 61 61v179q0 61 62 61h176q61 0 61 -61v-179q0 -61 62 -61h229q61 0 62 70v868q0 90 -7.5 155.5t-37 141.5t-81.5 124t-147.5 79.5t-228.5 31.5t-228.5 -31.5t-147.5 -79.5t-82 -124t-37 -141.5t-7 -155.5v-868zM444 715v223q0 82 28 114.5 t122 32.5t121.5 -32.5t27.5 -114.5v-221q0 -61 -61 -64h-176q-62 1 -62 62z" />
<glyph unicode="&#xab;" horiz-adv-x="1165" d="M102 600q-41 45 0 86l404 404q43 43 90 0l55 -58q43 -43 0 -84l-289 -291q-14 -14 0 -24l289 -293q43 -43 0 -86l-55 -57q-47 -45 -90 0zM512 600q-41 45 0 86l406 404q41 45 86 0l57 -58q51 -43 0 -84l-289 -291q-14 -14 0 -24l289 -293q47 -45 0 -86l-57 -57 q-45 -45 -86 0z" />
<glyph unicode="&#xad;" horiz-adv-x="1347" d="M143 555v229q0 61 62 62h938q61 0 61 -62v-229q0 -61 -61 -61h-938q-62 0 -62 61z" />
<glyph unicode="&#xb0;" horiz-adv-x="589" d="M20 1314.5q0 112.5 81 193.5t194 81q115 0 194.5 -79.5t79.5 -194.5q0 -113 -80.5 -194t-193.5 -81t-194 81t-81 193.5zM199 1315q0 -39 28.5 -67.5t67.5 -28.5t67.5 28.5t28.5 67.5t-28.5 67.5t-67.5 28.5t-67.5 -28.5t-28.5 -67.5z" />
<glyph unicode="&#xb2;" horiz-adv-x="1167" d="M70 61v177q0 131 62.5 242.5t152.5 185t181 132t160.5 111t78.5 95.5q10 49 -16.5 81.5t-84.5 32.5q-135 0 -158 -137q-10 -63 -67 -51l-234 51q-55 12 -53 68q4 53 16.5 101t48.5 109.5t88 105.5t145 74.5t214 30.5q129 0 224.5 -38.5t141.5 -91t72.5 -120t30.5 -105.5 t4 -68q0 -94 -40 -174t-101.5 -132.5t-136 -102.5t-141 -86t-120 -83t-69.5 -94q-6 -23 18 -23h517q61 0 61 -61v-230q0 -61 -61 -61h-873q-61 0 -61 61z" />
<glyph unicode="&#xb3;" horiz-adv-x="1208" d="M113 385q-2 55 53 68l233 51q57 12 68 -51q23 -137 158 -138q63 0 98 51.5t4 112.5q-47 88 -201 107q-61 6 -61 61v139q0 55 61 62q154 18 201 106q33 61 -3 112.5t-99 51.5q-135 0 -158 -137q-10 -63 -68 -51l-233 51q-55 12 -53 68q4 53 16 101t48 109.5t88 105.5 t145.5 74.5t214.5 30.5q236 0 360.5 -129t116.5 -319q-6 -111 -49 -186.5t-97 -108.5q-25 -10 0 -20q53 -33 96.5 -109t49.5 -186q8 -190 -117 -319.5t-360 -129.5q-121 0 -214.5 31t-145.5 75t-88 105.5t-48 109.5t-16 101z" />
<glyph unicode="&#xb4;" horiz-adv-x="608" d="M43 1290.5q10 -22.5 51 -22.5h135q43 0 76 26l236 189q35 29 26.5 52.5t-53.5 23.5h-215q-43 0 -76 -33l-164 -183q-26 -30 -16 -52.5z" />
<glyph unicode="&#xb7;" horiz-adv-x="475" d="M61 598q0 -61 62 -61h229q61 0 62 61v229q0 61 -62 62h-229q-61 0 -62 -62v-229z" />
<glyph unicode="&#xb9;" horiz-adv-x="778" d="M68 1085q0 -61 61 -61h88q61 0 62 -61v-902q0 -61 61 -61h227q61 0 62 61v1311q0 61 -62 62h-170q-14 0 -26 -7l-262 -157q-41 -23 -41 -74v-111z" />
<glyph unicode="&#xba;" horiz-adv-x="1191" d="M82 461v512q0 55 6 105t36 127t81 131.5t152.5 94t238.5 39.5t238.5 -39.5t152.5 -94t81 -131.5t36 -127t6 -105v-512q0 -55 -6 -105.5t-36 -127t-81 -131t-152.5 -94.5t-238.5 -40t-238.5 40t-152.5 94.5t-81 131t-36 127t-6 105.5zM434 569q0 -137 29 -195.5t133 -58.5 t133 58.5t29 195.5v295q0 137 -29 195.5t-133 58.5t-133 -58.5t-29 -195.5v-295z" />
<glyph unicode="&#xbb;" horiz-adv-x="1165" d="M104 254q-47 41 0 86l289 293q16 10 0 24l-289 291q-51 41 0 84l58 58q45 45 86 0l405 -404q41 -41 0 -86l-405 -403q-39 -45 -86 0zM514 254q-43 43 0 86l289 293q16 10 0 24l-289 291q-43 41 0 84l55 58q47 43 90 0l404 -404q41 -41 0 -86l-404 -403q-43 -45 -90 0z " />
<glyph unicode="&#xbf;" d="M133 14q0 117 39 204t88 129t105.5 97.5t78.5 108.5q20 51 70 51h231q31 0 47.5 -18.5t10.5 -48.5q-16 -94 -61.5 -160t-90.5 -96.5t-88 -82t-57 -120.5q-10 -51 16.5 -93t83.5 -42q135 0 158 137q10 63 67 51l234 -51q55 -12 53 -68q-4 -53 -16 -101t-48 -109.5 t-88.5 -105.5t-145.5 -75t-214 -31q-129 0 -224 39t-141 91.5t-73 120t-31 105t-4 68.5zM461 770q0 -61 61 -61h230q61 0 61 61v229q0 61 -61 62h-230q-61 0 -61 -62v-229z" />
<glyph unicode="&#xc0;" horiz-adv-x="1187" d="M92 70q0 -70 62 -70h229q61 0 61 61v179q0 61 62 61h176q61 0 61 -61v-179q0 -61 62 -61h229q61 0 62 70v868q0 90 -7.5 155.5t-37 141.5t-81.5 124t-147.5 79.5t-228.5 31.5t-228.5 -31.5t-147.5 -79.5t-82 -124t-37 -141.5t-7 -155.5v-868zM338 1944.5 q-8 -23.5 27 -52.5l235 -188q33 -27 76 -27h135q41 0 51 22.5t-16 53.5l-164 182q-33 33 -76 33h-215q-45 0 -53 -23.5zM444 715v223q0 82 28 114.5t122 32.5t121.5 -32.5t27.5 -114.5v-221q0 -61 -61 -64h-176q-62 1 -62 62z" />
<glyph unicode="&#xc1;" horiz-adv-x="1187" d="M92 70q0 -70 62 -70h229q61 0 61 61v179q0 61 62 61h176q61 0 61 -61v-179q0 -61 62 -61h229q61 0 62 70v868q0 90 -7.5 155.5t-37 141.5t-81.5 124t-147.5 79.5t-228.5 31.5t-228.5 -31.5t-147.5 -79.5t-82 -124t-37 -141.5t-7 -155.5v-868zM338 1699.5 q10 -22.5 51 -22.5h135q43 0 76 27l236 188q35 29 26.5 52.5t-53.5 23.5h-215q-43 0 -76 -33l-164 -182q-26 -31 -16 -53.5zM444 715v223q0 82 28 114.5t122 32.5t121.5 -32.5t27.5 -114.5v-221q0 -61 -61 -64h-176q-62 1 -62 62z" />
<glyph unicode="&#xc2;" horiz-adv-x="1187" d="M92 70q0 -70 62 -70h229q61 0 61 61v179q0 61 62 61h176q61 0 61 -61v-179q0 -61 62 -61h229q61 0 62 70v868q0 90 -7.5 155.5t-37 141.5t-81.5 124t-147.5 79.5t-228.5 31.5t-228.5 -31.5t-147.5 -79.5t-82 -124t-37 -141.5t-7 -155.5v-868zM266 1624q-43 47 0 90 l289 291q43 43 86 0l293 -295q45 -43 0 -90l-57 -55q-43 -43 -86 0l-183 180q-12 12 -24 0l-176 -176q-41 -43 -84 0zM444 715v223q0 82 28 114.5t122 32.5t121.5 -32.5t27.5 -114.5v-221q0 -61 -61 -64h-176q-62 1 -62 62z" />
<glyph unicode="&#xc3;" horiz-adv-x="1187" d="M92 70q0 -70 62 -70h229q61 0 61 61v179q0 61 62 61h176q61 0 61 -61v-179q0 -61 62 -61h229q61 0 62 70v868q0 90 -7.5 155.5t-37 141.5t-81.5 124t-147.5 79.5t-228.5 31.5t-228.5 -31.5t-147.5 -79.5t-82 -124t-37 -141.5t-7 -155.5v-868zM197 1710q37 -76 95 -108.5 t118.5 -27.5t127 19.5t121 31.5t100.5 13t64 -39q16 -31 60 -18l94 31q47 18 27 59q-37 76 -95.5 108.5t-119 27.5t-127 -19t-121 -31.5t-100.5 -13.5t-64 39q-6 12 -24.5 18t-35.5 0l-94 -31q-49 -16 -26 -59zM444 715v223q0 82 28 114.5t122 32.5t121.5 -32.5t27.5 -114.5 v-221q0 -61 -61 -64h-176q-62 1 -62 62z" />
<glyph unicode="&#xc4;" horiz-adv-x="1187" d="M92 70q0 -70 62 -70h229q61 0 61 61v179q0 61 62 61h176q61 0 61 -61v-179q0 -61 62 -61h229q61 0 62 70v868q0 90 -7.5 155.5t-37 141.5t-81.5 124t-147.5 79.5t-228.5 31.5t-228.5 -31.5t-147.5 -79.5t-82 -124t-37 -141.5t-7 -155.5v-868zM268 1720q0 47 35 82t82 35 t82 -35t35 -82t-35 -81.5t-82 -34.5t-82 34.5t-35 81.5zM444 715v223q0 82 28 114.5t122 32.5t121.5 -32.5t27.5 -114.5v-221q0 -61 -61 -64h-176q-62 1 -62 62zM698 1720q0 47 35 82t82 35t82 -35t35 -82t-35 -81.5t-82 -34.5t-82 34.5t-35 81.5z" />
<glyph unicode="&#xc5;" horiz-adv-x="1187" d="M319 1726.5q0 112.5 81 193.5t194 81q115 0 194.5 -79.5t79.5 -194.5q0 -113 -80.5 -194t-193.5 -81t-194 81t-81 193.5zM498 1727q0 -39 28.5 -67.5t67.5 -28.5t67.5 28.5t28.5 67.5t-28.5 67.5t-67.5 28.5t-67.5 -28.5t-28.5 -67.5zM92 70q0 -70 62 -70h229q61 0 61 61 v179q0 61 62 61h176q61 0 61 -61v-179q0 -61 62 -61h229q61 0 62 70v868q0 90 -7.5 155.5t-37 141.5t-81.5 124t-147.5 79.5t-228.5 31.5t-228.5 -31.5t-147.5 -79.5t-82 -124t-37 -141.5t-7 -155.5v-868zM444 715v223q0 82 28 114.5t122 32.5t121.5 -32.5t27.5 -114.5v-221 q0 -61 -61 -64h-176q-62 1 -62 62z" />
<glyph unicode="&#xc8;" horiz-adv-x="1140" d="M102 61q0 -61 62 -61h860q61 0 61 61v230q0 61 -61 61h-496q-61 0 -61 62v65q0 61 61 62h318q61 0 61 61v229q0 61 -61 62h-318q-61 0 -61 61v66q0 61 61 61h496q61 0 61 62v229q0 61 -61 62h-860q-61 0 -62 -62v-1311zM352 1944.5q-8 -23.5 27 -52.5l235 -188 q33 -27 76 -27h135q41 0 51.5 22.5t-16.5 53.5l-164 182q-33 33 -75 33h-215q-46 0 -54 -23.5z" />
<glyph unicode="&#xc9;" horiz-adv-x="1140" d="M102 61q0 -61 62 -61h860q61 0 61 61v230q0 61 -61 61h-496q-61 0 -61 62v65q0 61 61 62h318q61 0 61 61v229q0 61 -61 62h-318q-61 0 -61 61v66q0 61 61 61h496q61 0 61 62v229q0 61 -61 62h-860q-61 0 -62 -62v-1311zM352 1699.5q10 -22.5 51 -22.5h136q43 0 75 27 l236 188q35 29 26.5 52.5t-53.5 23.5h-215q-43 0 -76 -33l-163 -182q-27 -31 -17 -53.5z" />
<glyph unicode="&#xca;" horiz-adv-x="1140" d="M102 61q0 -61 62 -61h860q61 0 61 61v230q0 61 -61 61h-496q-61 0 -61 62v65q0 61 61 62h318q61 0 61 61v229q0 61 -61 62h-318q-61 0 -61 61v66q0 61 61 61h496q61 0 61 62v229q0 61 -61 62h-860q-61 0 -62 -62v-1311zM281 1624q-43 47 0 90l288 291q43 43 86 0 l293 -295q45 -43 0 -90l-57 -55q-43 -43 -86 0l-182 180q-12 12 -25 0l-176 -176q-41 -43 -84 0z" />
<glyph unicode="&#xcb;" horiz-adv-x="1140" d="M102 61q0 -61 62 -61h860q61 0 61 61v230q0 61 -61 61h-496q-61 0 -61 62v65q0 61 61 62h318q61 0 61 61v229q0 61 -61 62h-318q-61 0 -61 61v66q0 61 61 61h496q61 0 61 62v229q0 61 -61 62h-860q-61 0 -62 -62v-1311zM283 1720q0 47 34.5 82t81.5 35t82 -35t35 -82 t-35 -81.5t-82 -34.5t-81.5 34.5t-34.5 81.5zM713 1720q0 47 34.5 82t82 35t82 -35t34.5 -82t-34.5 -81.5t-82 -34.5t-82 34.5t-34.5 81.5z" />
<glyph unicode="&#xcc;" horiz-adv-x="552" d="M14.5 1944.5q-8.5 -23.5 26.5 -52.5l235 -188q33 -27 76 -27h135q41 0 51.5 22.5t-16.5 53.5l-164 182q-33 33 -75 33h-215q-45 0 -53.5 -23.5zM102 61q0 -61 62 -61h225q61 0 62 61v1311q0 61 -62 62h-225q-61 0 -62 -62v-1311z" />
<glyph unicode="&#xcd;" horiz-adv-x="552" d="M14.5 1699.5q10.5 -22.5 51.5 -22.5h135q43 0 75 27l236 188q35 29 26.5 52.5t-53.5 23.5h-215q-43 0 -75 -33l-164 -182q-27 -31 -16.5 -53.5zM102 61q0 -61 62 -61h225q61 0 62 61v1311q0 61 -62 62h-225q-61 0 -62 -62v-1311z" />
<glyph unicode="&#xce;" horiz-adv-x="552" d="M-57 1624q-43 47 0 90l288 291q43 43 86 0l293 -295q45 -43 0 -90l-57 -55q-43 -43 -86 0l-182 180q-12 12 -25 0l-176 -176q-41 -43 -84 0zM102 61q0 -61 62 -61h225q61 0 62 61v1311q0 61 -62 62h-225q-61 0 -62 -62v-1311z" />
<glyph unicode="&#xcf;" horiz-adv-x="552" d="M-55 1720q0 47 34.5 82t82 35t82 -35t34.5 -82t-34.5 -81.5t-82 -34.5t-82 34.5t-34.5 81.5zM102 61q0 -61 62 -61h225q61 0 62 61v1311q0 61 -62 62h-225q-61 0 -62 -62v-1311zM375 1720q0 47 34.5 82t82 35t82 -35t34.5 -82t-34.5 -81.5t-82 -34.5t-82 34.5t-34.5 81.5 z" />
<glyph unicode="&#xd1;" horiz-adv-x="1294" d="M102 61q0 -61 62 -61h229q61 0 62 61v662q0 14 9 17t15 -11l279 -682q20 -47 71 -47h301q61 0 62 61v1311q0 61 -62 62h-229q-61 0 -61 -62v-661q0 -14 -9.5 -17.5t-15.5 11.5l-278 681q-20 47 -72 48h-301q-61 0 -62 -62v-1311zM264 1710q37 -76 95.5 -108.5t119 -27.5 t127 19.5t120.5 31.5t100 13t65 -39q16 -31 59 -18l94 31q47 18 27 59q-37 76 -95 108.5t-118.5 27.5t-127 -19t-121 -31.5t-100.5 -13.5t-65 39q-6 12 -24.5 18t-34.5 0l-94 -31q-50 -16 -27 -59z" />
<glyph unicode="&#xd2;" horiz-adv-x="1191" d="M82 461v512q0 55 6 105t36 127t81 131.5t152.5 94t238.5 39.5t238.5 -39.5t152.5 -94t81 -131.5t36 -127t6 -105v-512q0 -55 -6 -105.5t-36 -127t-81 -131t-152.5 -94.5t-238.5 -40t-238.5 40t-152.5 94.5t-81 131t-36 127t-6 105.5zM334 1944.5q-8 -23.5 26 -52.5 l236 -188q33 -27 76 -27h135q41 0 51 22.5t-16 53.5l-164 182q-33 33 -76 33h-215q-45 0 -53 -23.5zM434 569q0 -137 29 -195.5t133 -58.5t133 58.5t29 195.5v295q0 137 -29 195.5t-133 58.5t-133 -58.5t-29 -195.5v-295z" />
<glyph unicode="&#xd3;" horiz-adv-x="1191" d="M82 461v512q0 55 6 105t36 127t81 131.5t152.5 94t238.5 39.5t238.5 -39.5t152.5 -94t81 -131.5t36 -127t6 -105v-512q0 -55 -6 -105.5t-36 -127t-81 -131t-152.5 -94.5t-238.5 -40t-238.5 40t-152.5 94.5t-81 131t-36 127t-6 105.5zM334 1699.5q10 -22.5 51 -22.5h135 q43 0 76 27l235 188q35 29 27 52.5t-53 23.5h-215q-43 0 -76 -33l-164 -182q-26 -31 -16 -53.5zM434 569q0 -137 29 -195.5t133 -58.5t133 58.5t29 195.5v295q0 137 -29 195.5t-133 58.5t-133 -58.5t-29 -195.5v-295z" />
<glyph unicode="&#xd4;" horiz-adv-x="1191" d="M82 461v512q0 55 6 105t36 127t81 131.5t152.5 94t238.5 39.5t238.5 -39.5t152.5 -94t81 -131.5t36 -127t6 -105v-512q0 -55 -6 -105.5t-36 -127t-81 -131t-152.5 -94.5t-238.5 -40t-238.5 40t-152.5 94.5t-81 131t-36 127t-6 105.5zM262 1624q-43 47 0 90l289 291 q43 43 86 0l293 -295q45 -43 0 -90l-58 -55q-43 -43 -86 0l-182 180q-12 12 -24 0l-177 -176q-41 -43 -84 0zM434 569q0 -137 29 -195.5t133 -58.5t133 58.5t29 195.5v295q0 137 -29 195.5t-133 58.5t-133 -58.5t-29 -195.5v-295z" />
<glyph unicode="&#xd5;" horiz-adv-x="1191" d="M82 461v512q0 55 6 105t36 127t81 131.5t152.5 94t238.5 39.5t238.5 -39.5t152.5 -94t81 -131.5t36 -127t6 -105v-512q0 -55 -6 -105.5t-36 -127t-81 -131t-152.5 -94.5t-238.5 -40t-238.5 40t-152.5 94.5t-81 131t-36 127t-6 105.5zM193 1710q37 -76 95 -108.5 t118.5 -27.5t127 19.5t121 31.5t100.5 13t64 -39q16 -31 60 -18l94 31q47 18 26 59q-37 76 -95 108.5t-118.5 27.5t-127 -19t-121 -31.5t-100.5 -13.5t-64 39q-6 12 -24.5 18t-35.5 0l-94 -31q-49 -16 -26 -59zM434 569q0 -137 29 -195.5t133 -58.5t133 58.5t29 195.5v295 q0 137 -29 195.5t-133 58.5t-133 -58.5t-29 -195.5v-295z" />
<glyph unicode="&#xd6;" horiz-adv-x="1191" d="M82 461v512q0 55 6 105t36 127t81 131.5t152.5 94t238.5 39.5t238.5 -39.5t152.5 -94t81 -131.5t36 -127t6 -105v-512q0 -55 -6 -105.5t-36 -127t-81 -131t-152.5 -94.5t-238.5 -40t-238.5 40t-152.5 94.5t-81 131t-36 127t-6 105.5zM264 1720q0 47 35 82t82 35t82 -35 t35 -82t-35 -81.5t-82 -34.5t-82 34.5t-35 81.5zM434 569q0 -137 29 -195.5t133 -58.5t133 58.5t29 195.5v295q0 137 -29 195.5t-133 58.5t-133 -58.5t-29 -195.5v-295zM694 1720q0 47 35 82t82 35t82 -35t35 -82t-35 -81.5t-82 -34.5t-82 34.5t-35 81.5z" />
<glyph unicode="&#xd7;" d="M115 336q-43 43 0 88l235 235q16 16 0 29l-235 236q-41 43 0 88l161 162q43 43 89 0l235 -236q14 -18 29 0l235 236q45 43 88 0l162 -162q43 -45 0 -88l-235 -236q-16 -12 0 -29l235 -235q45 -43 0 -88l-162 -162q-45 -43 -88 0l-235 236q-14 14 -29 0l-235 -236 q-45 -41 -89 0z" />
<glyph unicode="&#xd8;" horiz-adv-x="1232" d="M82 461v512q0 55 6 105t36 127t81 131.5t152.5 94t238.5 39.5q182 0 297 -65l43 74q27 51 80 14l71 -39q53 -31 25 -82l-68 -117q66 -113 66 -282v-512q0 -55 -6 -105.5t-36 -127t-81 -131t-152.5 -94.5t-238.5 -40q-162 0 -268 51l-35 -59q-29 -47 -82 -12l-68 41 q-57 25 -24 77l49 84q-86 123 -86 316zM434 608l275 477q-39 33 -113 33q-104 0 -133 -58.5t-29 -195.5v-256zM510 332q37 -16 86 -17q104 0 133 58.5t29 195.5v191z" />
<glyph unicode="&#xd9;" horiz-adv-x="1208" d="M90 461v911q0 61 62 62h229q61 0 61 -62v-803q0 -137 29 -195.5t133.5 -58.5t133 58.5t28.5 195.5v803q0 61 61 62h230q61 0 61 -62v-911q0 -55 -6 -105.5t-35.5 -127t-81 -131t-153 -94.5t-238.5 -40t-238.5 40t-152.5 94.5t-81 131t-36 127t-6 105.5zM342 1944.5 q-8 -23.5 27 -52.5l235 -188q33 -27 76 -27h135q41 0 51.5 22.5t-16.5 53.5l-164 182q-33 33 -76 33h-215q-45 0 -53 -23.5z" />
<glyph unicode="&#xda;" horiz-adv-x="1208" d="M90 461v911q0 61 62 62h229q61 0 61 -62v-803q0 -137 29 -195.5t133.5 -58.5t133 58.5t28.5 195.5v803q0 61 61 62h230q61 0 61 -62v-911q0 -55 -6 -105.5t-35.5 -127t-81 -131t-153 -94.5t-238.5 -40t-238.5 40t-152.5 94.5t-81 131t-36 127t-6 105.5zM342 1699.5 q10 -22.5 51 -22.5h135q43 0 76 27l236 188q35 29 26.5 52.5t-53.5 23.5h-215q-43 0 -76 -33l-164 -182q-26 -31 -16 -53.5z" />
<glyph unicode="&#xdb;" horiz-adv-x="1208" d="M90 461v911q0 61 62 62h229q61 0 61 -62v-803q0 -137 29 -195.5t133.5 -58.5t133 58.5t28.5 195.5v803q0 61 61 62h230q61 0 61 -62v-911q0 -55 -6 -105.5t-35.5 -127t-81 -131t-153 -94.5t-238.5 -40t-238.5 40t-152.5 94.5t-81 131t-36 127t-6 105.5zM270 1624 q-43 47 0 90l289 291q43 43 86 0l293 -295q45 -43 0 -90l-57 -55q-43 -43 -86 0l-183 180q-12 12 -24 0l-176 -176q-41 -43 -84 0z" />
<glyph unicode="&#xdc;" horiz-adv-x="1208" d="M90 461v911q0 61 62 62h229q61 0 61 -62v-803q0 -137 29 -195.5t133.5 -58.5t133 58.5t28.5 195.5v803q0 61 61 62h230q61 0 61 -62v-911q0 -55 -6 -105.5t-35.5 -127t-81 -131t-153 -94.5t-238.5 -40t-238.5 40t-152.5 94.5t-81 131t-36 127t-6 105.5zM272 1720 q0 47 35 82t82 35t82 -35t35 -82t-35 -81.5t-82 -34.5t-82 34.5t-35 81.5zM702 1720q0 47 35 82t82 35t82 -35t35 -82t-35 -81.5t-82 -34.5t-82 34.5t-35 81.5z" />
<glyph unicode="&#xdd;" horiz-adv-x="1230" d="M498 1616.5q10 -22.5 51 -22.5h135q43 0 76 26l236 189q35 29 26.5 52.5t-53.5 23.5h-215q-43 0 -76 -33l-164 -183q-26 -30 -16 -52.5zM38 1414q-6 -9 -7 -22q0 -13 8 -30l369 -819q4 -8 4 -25v-457q0 -61 61 -61h287q61 0 61 61v457q0 16 4 25l367 819q7 17 7 30 q0 12 -6 22q-13 19 -48 20h-293q-51 0 -70 -48l-151 -380q-14 -33 -29 0l-151 380q-18 47 -70 48h-295q-35 -1 -48 -20z" />
<glyph unicode="&#xe0;" horiz-adv-x="1187" d="M92 70q0 -70 62 -70h229q61 0 61 61v179q0 61 62 61h176q61 0 61 -61v-179q0 -61 62 -61h229q61 0 62 70v868q0 90 -7.5 155.5t-37 141.5t-81.5 124t-147.5 79.5t-228.5 31.5t-228.5 -31.5t-147.5 -79.5t-82 -124t-37 -141.5t-7 -155.5v-868zM338 1944.5 q-8 -23.5 27 -52.5l235 -188q33 -27 76 -27h135q41 0 51 22.5t-16 53.5l-164 182q-33 33 -76 33h-215q-45 0 -53 -23.5zM444 715v223q0 82 28 114.5t122 32.5t121.5 -32.5t27.5 -114.5v-221q0 -61 -61 -64h-176q-62 1 -62 62z" />
<glyph unicode="&#xe1;" horiz-adv-x="1187" d="M92 70q0 -70 62 -70h229q61 0 61 61v179q0 61 62 61h176q61 0 61 -61v-179q0 -61 62 -61h229q61 0 62 70v868q0 90 -7.5 155.5t-37 141.5t-81.5 124t-147.5 79.5t-228.5 31.5t-228.5 -31.5t-147.5 -79.5t-82 -124t-37 -141.5t-7 -155.5v-868zM338 1699.5 q10 -22.5 51 -22.5h135q43 0 76 27l236 188q35 29 26.5 52.5t-53.5 23.5h-215q-43 0 -76 -33l-164 -182q-26 -31 -16 -53.5zM444 715v223q0 82 28 114.5t122 32.5t121.5 -32.5t27.5 -114.5v-221q0 -61 -61 -64h-176q-62 1 -62 62z" />
<glyph unicode="&#xe2;" horiz-adv-x="1187" d="M92 70q0 -70 62 -70h229q61 0 61 61v179q0 61 62 61h176q61 0 61 -61v-179q0 -61 62 -61h229q61 0 62 70v868q0 90 -7.5 155.5t-37 141.5t-81.5 124t-147.5 79.5t-228.5 31.5t-228.5 -31.5t-147.5 -79.5t-82 -124t-37 -141.5t-7 -155.5v-868zM266 1624q-43 47 0 90 l289 291q43 43 86 0l293 -295q45 -43 0 -90l-57 -55q-43 -43 -86 0l-183 180q-12 12 -24 0l-176 -176q-41 -43 -84 0zM444 715v223q0 82 28 114.5t122 32.5t121.5 -32.5t27.5 -114.5v-221q0 -61 -61 -64h-176q-62 1 -62 62z" />
<glyph unicode="&#xe3;" horiz-adv-x="1187" d="M92 70q0 -70 62 -70h229q61 0 61 61v179q0 61 62 61h176q61 0 61 -61v-179q0 -61 62 -61h229q61 0 62 70v868q0 90 -7.5 155.5t-37 141.5t-81.5 124t-147.5 79.5t-228.5 31.5t-228.5 -31.5t-147.5 -79.5t-82 -124t-37 -141.5t-7 -155.5v-868zM197 1710q37 -76 95 -108.5 t118.5 -27.5t127 19.5t121 31.5t100.5 13t64 -39q16 -31 60 -18l94 31q47 18 27 59q-37 76 -95.5 108.5t-119 27.5t-127 -19t-121 -31.5t-100.5 -13.5t-64 39q-6 12 -24.5 18t-35.5 0l-94 -31q-49 -16 -26 -59zM444 715v223q0 82 28 114.5t122 32.5t121.5 -32.5t27.5 -114.5 v-221q0 -61 -61 -64h-176q-62 1 -62 62z" />
<glyph unicode="&#xe4;" horiz-adv-x="1187" d="M92 70q0 -70 62 -70h229q61 0 61 61v179q0 61 62 61h176q61 0 61 -61v-179q0 -61 62 -61h229q61 0 62 70v868q0 90 -7.5 155.5t-37 141.5t-81.5 124t-147.5 79.5t-228.5 31.5t-228.5 -31.5t-147.5 -79.5t-82 -124t-37 -141.5t-7 -155.5v-868zM268 1720q0 47 35 82t82 35 t82 -35t35 -82t-35 -81.5t-82 -34.5t-82 34.5t-35 81.5zM444 715v223q0 82 28 114.5t122 32.5t121.5 -32.5t27.5 -114.5v-221q0 -61 -61 -64h-176q-62 1 -62 62zM698 1720q0 47 35 82t82 35t82 -35t35 -82t-35 -81.5t-82 -34.5t-82 34.5t-35 81.5z" />
<glyph unicode="&#xe5;" horiz-adv-x="1187" d="M319 1867.5q0 112.5 81 193.5t194 81q115 0 194.5 -79.5t79.5 -194.5q0 -113 -80.5 -194t-193.5 -81t-194 81t-81 193.5zM498 1868q0 -39 28.5 -67.5t67.5 -28.5t67.5 28.5t28.5 67.5t-28.5 67.5t-67.5 28.5t-67.5 -28.5t-28.5 -67.5zM92 70q0 -70 62 -70h229q61 0 61 61 v179q0 61 62 61h176q61 0 61 -61v-179q0 -61 62 -61h229q61 0 62 70v868q0 90 -7.5 155.5t-37 141.5t-81.5 124t-147.5 79.5t-228.5 31.5t-228.5 -31.5t-147.5 -79.5t-82 -124t-37 -141.5t-7 -155.5v-868zM444 715v223q0 82 28 114.5t122 32.5t121.5 -32.5t27.5 -114.5v-221 q0 -61 -61 -64h-176q-62 1 -62 62z" />
<glyph unicode="&#xe8;" horiz-adv-x="1140" d="M102 61q0 -61 62 -61h860q61 0 61 61v230q0 61 -61 61h-496q-61 0 -61 62v65q0 61 61 62h318q61 0 61 61v229q0 61 -61 62h-318q-61 0 -61 61v66q0 61 61 61h496q61 0 61 62v229q0 61 -61 62h-860q-61 0 -62 -62v-1311zM352 1944.5q-8 -23.5 27 -52.5l235 -188 q33 -27 76 -27h135q41 0 51.5 22.5t-16.5 53.5l-164 182q-33 33 -75 33h-215q-46 0 -54 -23.5z" />
<glyph unicode="&#xe9;" horiz-adv-x="1140" d="M102 61q0 -61 62 -61h860q61 0 61 61v230q0 61 -61 61h-496q-61 0 -61 62v65q0 61 61 62h318q61 0 61 61v229q0 61 -61 62h-318q-61 0 -61 61v66q0 61 61 61h496q61 0 61 62v229q0 61 -61 62h-860q-61 0 -62 -62v-1311zM352 1699.5q10 -22.5 51 -22.5h136q43 0 75 27 l236 188q35 29 26.5 52.5t-53.5 23.5h-215q-43 0 -76 -33l-163 -182q-27 -31 -17 -53.5z" />
<glyph unicode="&#xea;" horiz-adv-x="1140" d="M102 61q0 -61 62 -61h860q61 0 61 61v230q0 61 -61 61h-496q-61 0 -61 62v65q0 61 61 62h318q61 0 61 61v229q0 61 -61 62h-318q-61 0 -61 61v66q0 61 61 61h496q61 0 61 62v229q0 61 -61 62h-860q-61 0 -62 -62v-1311zM281 1624q-43 47 0 90l288 291q43 43 86 0 l293 -295q45 -43 0 -90l-57 -55q-43 -43 -86 0l-182 180q-12 12 -25 0l-176 -176q-41 -43 -84 0z" />
<glyph unicode="&#xeb;" horiz-adv-x="1140" d="M102 61q0 -61 62 -61h860q61 0 61 61v230q0 61 -61 61h-496q-61 0 -61 62v65q0 61 61 62h318q61 0 61 61v229q0 61 -61 62h-318q-61 0 -61 61v66q0 61 61 61h496q61 0 61 62v229q0 61 -61 62h-860q-61 0 -62 -62v-1311zM283 1720q0 47 34.5 82t81.5 35t82 -35t35 -82 t-35 -81.5t-82 -34.5t-81.5 34.5t-34.5 81.5zM713 1720q0 47 34.5 82t82 35t82 -35t34.5 -82t-34.5 -81.5t-82 -34.5t-82 34.5t-34.5 81.5z" />
<glyph unicode="&#xec;" horiz-adv-x="552" d="M14.5 1944.5q-8.5 -23.5 26.5 -52.5l235 -188q33 -27 76 -27h135q41 0 51.5 22.5t-16.5 53.5l-164 182q-33 33 -75 33h-215q-45 0 -53.5 -23.5zM102 61q0 -61 62 -61h225q61 0 62 61v1311q0 61 -62 62h-225q-61 0 -62 -62v-1311z" />
<glyph unicode="&#xed;" horiz-adv-x="552" d="M14.5 1699.5q10.5 -22.5 51.5 -22.5h135q43 0 75 27l236 188q35 29 26.5 52.5t-53.5 23.5h-215q-43 0 -75 -33l-164 -182q-27 -31 -16.5 -53.5zM102 61q0 -61 62 -61h225q61 0 62 61v1311q0 61 -62 62h-225q-61 0 -62 -62v-1311z" />
<glyph unicode="&#xee;" horiz-adv-x="552" d="M-57 1624q-43 47 0 90l288 291q43 43 86 0l293 -295q45 -43 0 -90l-57 -55q-43 -43 -86 0l-182 180q-12 12 -25 0l-176 -176q-41 -43 -84 0zM102 61q0 -61 62 -61h225q61 0 62 61v1311q0 61 -62 62h-225q-61 0 -62 -62v-1311z" />
<glyph unicode="&#xef;" horiz-adv-x="552" d="M-55 1720q0 47 34.5 82t82 35t82 -35t34.5 -82t-34.5 -81.5t-82 -34.5t-82 34.5t-34.5 81.5zM102 61q0 -61 62 -61h225q61 0 62 61v1311q0 61 -62 62h-225q-61 0 -62 -62v-1311zM375 1720q0 47 34.5 82t82 35t82 -35t34.5 -82t-34.5 -81.5t-82 -34.5t-82 34.5t-34.5 81.5 z" />
<glyph unicode="&#xf1;" horiz-adv-x="1294" d="M102 61q0 -61 62 -61h229q61 0 62 61v662q0 14 9 17t15 -11l279 -682q20 -47 71 -47h301q61 0 62 61v1311q0 61 -62 62h-229q-61 0 -61 -62v-661q0 -14 -9.5 -17.5t-15.5 11.5l-278 681q-20 47 -72 48h-301q-61 0 -62 -62v-1311zM264 1710q37 -76 95.5 -108.5t119 -27.5 t127 19.5t120.5 31.5t100 13t65 -39q16 -31 59 -18l94 31q47 18 27 59q-37 76 -95 108.5t-118.5 27.5t-127 -19t-121 -31.5t-100.5 -13.5t-65 39q-6 12 -24.5 18t-34.5 0l-94 -31q-50 -16 -27 -59z" />
<glyph unicode="&#xf2;" horiz-adv-x="1191" d="M82 461v512q0 55 6 105t36 127t81 131.5t152.5 94t238.5 39.5t238.5 -39.5t152.5 -94t81 -131.5t36 -127t6 -105v-512q0 -55 -6 -105.5t-36 -127t-81 -131t-152.5 -94.5t-238.5 -40t-238.5 40t-152.5 94.5t-81 131t-36 127t-6 105.5zM334 1944.5q-8 -23.5 26 -52.5 l236 -188q33 -27 76 -27h135q41 0 51 22.5t-16 53.5l-164 182q-33 33 -76 33h-215q-45 0 -53 -23.5zM434 569q0 -137 29 -195.5t133 -58.5t133 58.5t29 195.5v295q0 137 -29 195.5t-133 58.5t-133 -58.5t-29 -195.5v-295z" />
<glyph unicode="&#xf3;" horiz-adv-x="1191" d="M82 461v512q0 55 6 105t36 127t81 131.5t152.5 94t238.5 39.5t238.5 -39.5t152.5 -94t81 -131.5t36 -127t6 -105v-512q0 -55 -6 -105.5t-36 -127t-81 -131t-152.5 -94.5t-238.5 -40t-238.5 40t-152.5 94.5t-81 131t-36 127t-6 105.5zM334 1699.5q10 -22.5 51 -22.5h135 q43 0 76 27l235 188q35 29 27 52.5t-53 23.5h-215q-43 0 -76 -33l-164 -182q-26 -31 -16 -53.5zM434 569q0 -137 29 -195.5t133 -58.5t133 58.5t29 195.5v295q0 137 -29 195.5t-133 58.5t-133 -58.5t-29 -195.5v-295z" />
<glyph unicode="&#xf4;" horiz-adv-x="1191" d="M82 461v512q0 55 6 105t36 127t81 131.5t152.5 94t238.5 39.5t238.5 -39.5t152.5 -94t81 -131.5t36 -127t6 -105v-512q0 -55 -6 -105.5t-36 -127t-81 -131t-152.5 -94.5t-238.5 -40t-238.5 40t-152.5 94.5t-81 131t-36 127t-6 105.5zM262 1624q-43 47 0 90l289 291 q43 43 86 0l293 -295q45 -43 0 -90l-58 -55q-43 -43 -86 0l-182 180q-12 12 -24 0l-177 -176q-41 -43 -84 0zM434 569q0 -137 29 -195.5t133 -58.5t133 58.5t29 195.5v295q0 137 -29 195.5t-133 58.5t-133 -58.5t-29 -195.5v-295z" />
<glyph unicode="&#xf5;" horiz-adv-x="1191" d="M82 461v512q0 55 6 105t36 127t81 131.5t152.5 94t238.5 39.5t238.5 -39.5t152.5 -94t81 -131.5t36 -127t6 -105v-512q0 -55 -6 -105.5t-36 -127t-81 -131t-152.5 -94.5t-238.5 -40t-238.5 40t-152.5 94.5t-81 131t-36 127t-6 105.5zM193 1710q37 -76 95 -108.5 t118.5 -27.5t127 19.5t121 31.5t100.5 13t64 -39q16 -31 60 -18l94 31q47 18 26 59q-37 76 -95 108.5t-118.5 27.5t-127 -19t-121 -31.5t-100.5 -13.5t-64 39q-6 12 -24.5 18t-35.5 0l-94 -31q-49 -16 -26 -59zM434 569q0 -137 29 -195.5t133 -58.5t133 58.5t29 195.5v295 q0 137 -29 195.5t-133 58.5t-133 -58.5t-29 -195.5v-295z" />
<glyph unicode="&#xf6;" horiz-adv-x="1191" d="M82 461v512q0 55 6 105t36 127t81 131.5t152.5 94t238.5 39.5t238.5 -39.5t152.5 -94t81 -131.5t36 -127t6 -105v-512q0 -55 -6 -105.5t-36 -127t-81 -131t-152.5 -94.5t-238.5 -40t-238.5 40t-152.5 94.5t-81 131t-36 127t-6 105.5zM264 1720q0 47 35 82t82 35t82 -35 t35 -82t-35 -81.5t-82 -34.5t-82 34.5t-35 81.5zM434 569q0 -137 29 -195.5t133 -58.5t133 58.5t29 195.5v295q0 137 -29 195.5t-133 58.5t-133 -58.5t-29 -195.5v-295zM694 1720q0 47 35 82t82 35t82 -35t35 -82t-35 -81.5t-82 -34.5t-82 34.5t-35 81.5z" />
<glyph unicode="&#xf7;" d="M23 555v229q0 61 61 62h1061q61 0 61 -62v-229q0 -61 -61 -61h-1061q-61 0 -61 61zM442 252q0 78 47.5 125t125 47t124.5 -47t47 -125q0 -68 -49 -120t-122.5 -52t-123 52t-49.5 120zM442 1092q0 68 49.5 120t123 52t122.5 -52.5t49 -119.5q0 -78 -47 -125t-124.5 -47 t-125 47t-47.5 125z" />
<glyph unicode="&#xf8;" horiz-adv-x="1232" d="M82 461v512q0 55 6 105t36 127t81 131.5t152.5 94t238.5 39.5q182 0 297 -65l43 74q27 51 80 14l71 -39q53 -31 25 -82l-68 -117q66 -113 66 -282v-512q0 -55 -6 -105.5t-36 -127t-81 -131t-152.5 -94.5t-238.5 -40q-162 0 -268 51l-35 -59q-29 -47 -82 -12l-68 41 q-57 25 -24 77l49 84q-86 123 -86 316zM434 608l275 477q-39 33 -113 33q-104 0 -133 -58.5t-29 -195.5v-256zM510 332q37 -16 86 -17q104 0 133 58.5t29 195.5v191z" />
<glyph unicode="&#xf9;" horiz-adv-x="1208" d="M90 461v911q0 61 62 62h229q61 0 61 -62v-803q0 -137 29 -195.5t133.5 -58.5t133 58.5t28.5 195.5v803q0 61 61 62h230q61 0 61 -62v-911q0 -55 -6 -105.5t-35.5 -127t-81 -131t-153 -94.5t-238.5 -40t-238.5 40t-152.5 94.5t-81 131t-36 127t-6 105.5zM342 1944.5 q-8 -23.5 27 -52.5l235 -188q33 -27 76 -27h135q41 0 51.5 22.5t-16.5 53.5l-164 182q-33 33 -76 33h-215q-45 0 -53 -23.5z" />
<glyph unicode="&#xfa;" horiz-adv-x="1208" d="M90 461v911q0 61 62 62h229q61 0 61 -62v-803q0 -137 29 -195.5t133.5 -58.5t133 58.5t28.5 195.5v803q0 61 61 62h230q61 0 61 -62v-911q0 -55 -6 -105.5t-35.5 -127t-81 -131t-153 -94.5t-238.5 -40t-238.5 40t-152.5 94.5t-81 131t-36 127t-6 105.5zM342 1699.5 q10 -22.5 51 -22.5h135q43 0 76 27l236 188q35 29 26.5 52.5t-53.5 23.5h-215q-43 0 -76 -33l-164 -182q-26 -31 -16 -53.5z" />
<glyph unicode="&#xfb;" horiz-adv-x="1208" d="M90 461v911q0 61 62 62h229q61 0 61 -62v-803q0 -137 29 -195.5t133.5 -58.5t133 58.5t28.5 195.5v803q0 61 61 62h230q61 0 61 -62v-911q0 -55 -6 -105.5t-35.5 -127t-81 -131t-153 -94.5t-238.5 -40t-238.5 40t-152.5 94.5t-81 131t-36 127t-6 105.5zM270 1624 q-43 47 0 90l289 291q43 43 86 0l293 -295q45 -43 0 -90l-57 -55q-43 -43 -86 0l-183 180q-12 12 -24 0l-176 -176q-41 -43 -84 0z" />
<glyph unicode="&#xfc;" horiz-adv-x="1208" d="M90 461v911q0 61 62 62h229q61 0 61 -62v-803q0 -137 29 -195.5t133.5 -58.5t133 58.5t28.5 195.5v803q0 61 61 62h230q61 0 61 -62v-911q0 -55 -6 -105.5t-35.5 -127t-81 -131t-153 -94.5t-238.5 -40t-238.5 40t-152.5 94.5t-81 131t-36 127t-6 105.5zM272 1720 q0 47 35 82t82 35t82 -35t35 -82t-35 -81.5t-82 -34.5t-82 34.5t-35 81.5zM702 1720q0 47 35 82t82 35t82 -35t35 -82t-35 -81.5t-82 -34.5t-82 34.5t-35 81.5z" />
<glyph unicode="&#xfd;" horiz-adv-x="1230" d="M498 1616.5q10 -22.5 51 -22.5h135q43 0 76 26l236 189q35 29 26.5 52.5t-53.5 23.5h-215q-43 0 -76 -33l-164 -183q-26 -30 -16 -52.5zM38 1414q-6 -9 -7 -22q0 -13 8 -30l369 -819q4 -8 4 -25v-457q0 -61 61 -61h287q61 0 61 61v457q0 16 4 25l367 819q7 17 7 30 q0 12 -6 22q-13 19 -48 20h-293q-51 0 -70 -48l-151 -380q-14 -33 -29 0l-151 380q-18 47 -70 48h-295q-35 -1 -48 -20z" />
<glyph unicode="&#xff;" horiz-adv-x="1230" d="M283 1710q0 47 34.5 81.5t81.5 34.5t82 -34.5t35 -81.5t-35 -82t-82 -35t-81.5 35t-34.5 82zM713 1710q0 47 34.5 81.5t82 34.5t82 -34.5t34.5 -81.5t-34.5 -82t-82 -35t-82 35t-34.5 82zM38 1414q-6 -9 -7 -22q0 -13 8 -30l369 -819q4 -8 4 -25v-457q0 -61 61 -61h287 q61 0 61 61v457q0 16 4 25l367 819q7 17 7 30q0 12 -6 22q-13 19 -48 20h-293q-51 0 -70 -48l-151 -380q-14 -33 -29 0l-151 380q-18 47 -70 48h-295q-35 -1 -48 -20z" />
<glyph unicode="&#x152;" horiz-adv-x="2332" d="M1294 61q0 -61 62 -61h860q61 0 61 61v230q0 61 -61 61h-496q-61 0 -61 62v65q0 61 61 62h318q61 0 61 61v229q0 61 -61 62h-318q-61 0 -61 61v66q0 61 61 61h496q61 0 61 62v229q0 61 -61 62h-860q-61 0 -62 -62v-1311zM82 461v512q0 55 6 105t36 127t81 131.5t152.5 94 t238.5 39.5t238.5 -39.5t152.5 -94t81 -131.5t36 -127t6 -105v-512q0 -55 -6 -105.5t-36 -127t-81 -131t-152.5 -94.5t-238.5 -40t-238.5 40t-152.5 94.5t-81 131t-36 127t-6 105.5zM434 569q0 -137 29 -195.5t133 -58.5t133 58.5t29 195.5v295q0 137 -29 195.5t-133 58.5 t-133 -58.5t-29 -195.5v-295z" />
<glyph unicode="&#x153;" horiz-adv-x="2332" d="M1294 61q0 -61 62 -61h860q61 0 61 61v230q0 61 -61 61h-496q-61 0 -61 62v65q0 61 61 62h318q61 0 61 61v229q0 61 -61 62h-318q-61 0 -61 61v66q0 61 61 61h496q61 0 61 62v229q0 61 -61 62h-860q-61 0 -62 -62v-1311zM82 461v512q0 55 6 105t36 127t81 131.5t152.5 94 t238.5 39.5t238.5 -39.5t152.5 -94t81 -131.5t36 -127t6 -105v-512q0 -55 -6 -105.5t-36 -127t-81 -131t-152.5 -94.5t-238.5 -40t-238.5 40t-152.5 94.5t-81 131t-36 127t-6 105.5zM434 569q0 -137 29 -195.5t133 -58.5t133 58.5t29 195.5v295q0 137 -29 195.5t-133 58.5 t-133 -58.5t-29 -195.5v-295z" />
<glyph unicode="&#x178;" horiz-adv-x="1230" d="M283 1710q0 47 34.5 81.5t81.5 34.5t82 -34.5t35 -81.5t-35 -82t-82 -35t-81.5 35t-34.5 82zM713 1710q0 47 34.5 81.5t82 34.5t82 -34.5t34.5 -81.5t-34.5 -82t-82 -35t-82 35t-34.5 82zM38 1414q-6 -9 -7 -22q0 -13 8 -30l369 -819q4 -8 4 -25v-457q0 -61 61 -61h287 q61 0 61 61v457q0 16 4 25l367 819q7 17 7 30q0 12 -6 22q-13 19 -48 20h-293q-51 0 -70 -48l-151 -380q-14 -33 -29 0l-151 380q-18 47 -70 48h-295q-35 -1 -48 -20z" />
<glyph unicode="&#x2c6;" d="M276 1624q-43 47 0 90l289 291q43 43 86 0l293 -295q45 -43 0 -90l-57 -55q-43 -43 -86 0l-183 180q-12 12 -24 0l-176 -176q-41 -43 -84 0z" />
<glyph unicode="&#x2dc;" horiz-adv-x="942" d="M68 1710q37 -76 95 -108.5t118.5 -27.5t127 19.5t121 31.5t100.5 13t64 -39q16 -31 60 -18l94 31q47 18 26 59q-37 76 -95 108.5t-118.5 27.5t-127 -19t-121 -31.5t-100.5 -13.5t-64 39q-6 12 -24.5 18t-35.5 0l-94 -31q-49 -16 -26 -59z" />
<glyph unicode="&#x2000;" horiz-adv-x="1071" />
<glyph unicode="&#x2001;" horiz-adv-x="2142" />
<glyph unicode="&#x2002;" horiz-adv-x="1071" />
<glyph unicode="&#x2003;" horiz-adv-x="2142" />
<glyph unicode="&#x2004;" horiz-adv-x="712" />
<glyph unicode="&#x2005;" horiz-adv-x="534" />
<glyph unicode="&#x2006;" horiz-adv-x="356" />
<glyph unicode="&#x2007;" horiz-adv-x="356" />
<glyph unicode="&#x2008;" horiz-adv-x="266" />
<glyph unicode="&#x2009;" horiz-adv-x="428" />
<glyph unicode="&#x200a;" horiz-adv-x="118" />
<glyph unicode="&#x2010;" horiz-adv-x="1347" d="M143 555v229q0 61 62 62h938q61 0 61 -62v-229q0 -61 -61 -61h-938q-62 0 -62 61z" />
<glyph unicode="&#x2011;" horiz-adv-x="1347" d="M143 555v229q0 61 62 62h938q61 0 61 -62v-229q0 -61 -61 -61h-938q-62 0 -62 61z" />
<glyph unicode="&#x2012;" horiz-adv-x="1347" d="M143 555v229q0 61 62 62h938q61 0 61 -62v-229q0 -61 -61 -61h-938q-62 0 -62 61z" />
<glyph unicode="&#x2013;" d="M186 571v230q0 61 62 61h733q61 0 61 -61v-230q0 -61 -61 -61h-733q-62 0 -62 61z" />
<glyph unicode="&#x2014;" horiz-adv-x="1880" d="M102 571v230q0 61 62 61h1552q61 0 62 -61v-230q0 -61 -62 -61h-1552q-62 0 -62 61z" />
<glyph unicode="&#x2018;" horiz-adv-x="475" d="M61 924q0 -61 62 -62h229q61 0 62 62v229q0 61 -62 61h-94q-20 0 -20 21q4 86 65 158q14 16 8 31.5t-26 13.5q-113 -12 -168.5 -89t-55.5 -196v-229z" />
<glyph unicode="&#x2019;" horiz-adv-x="475" d="M61 1143q0 -61 62 -62h94q20 0 21 -20q-4 -86 -66 -158q-14 -16 -8 -31.5t26 -13.5q113 12 168.5 89t55.5 196v229q0 61 -62 62h-229q-61 0 -62 -62v-229z" />
<glyph unicode="&#x201a;" horiz-adv-x="485" d="M82 61q0 -61 61 -61h95q20 0 20 -20q-4 -86 -65 -158q-14 -16 -8.5 -31.5t26.5 -13.5q113 12 168 89t55 195v230q0 61 -61 61h-230q-61 0 -61 -61v-230z" />
<glyph unicode="&#x201c;" horiz-adv-x="884" d="M61 915q0 -61 62 -61h229q61 0 62 61v230q0 61 -62 61h-94q-20 0 -20 21q4 86 65 157q14 16 8 32t-26 14q-113 -12 -168.5 -89t-55.5 -196v-230zM471 915q0 -61 61 -61h230q61 0 61 61v230q0 61 -61 61h-94q-20 0 -21 21q4 86 66 157q14 16 8 32t-27 14 q-113 -12 -168 -89t-55 -196v-230z" />
<glyph unicode="&#x201d;" horiz-adv-x="884" d="M61 1139q0 -61 62 -62h94q20 0 21 -20q-4 -86 -66 -158q-14 -16 -8 -31.5t26 -13.5q113 12 168.5 89t55.5 196v229q0 61 -62 62h-229q-61 0 -62 -62v-229zM471 1139q0 -61 61 -62h95q20 0 20 -20q-4 -86 -65 -158q-14 -16 -8 -31.5t26 -13.5q113 12 168 89t55 196v229 q0 61 -61 62h-230q-61 0 -61 -62v-229z" />
<glyph unicode="&#x201e;" horiz-adv-x="915" d="M82 61q0 -61 61 -61h95q20 0 20 -20q-4 -86 -65 -158q-14 -16 -8.5 -31.5t26.5 -13.5q113 12 168 89t55 195v230q0 61 -61 61h-230q-61 0 -61 -61v-230zM512 61q0 -61 61 -61h95q20 0 20 -20q-4 -86 -65 -158q-14 -16 -8 -31.5t26 -13.5q113 12 168 89t55 195v230 q0 61 -61 61h-230q-61 0 -61 -61v-230z" />
<glyph unicode="&#x2022;" d="M408 717q0 84 61 145.5t145 61.5t145.5 -61.5t61.5 -145.5t-61.5 -145.5t-145.5 -61.5t-145 61.5t-61 145.5z" />
<glyph unicode="&#x2026;" horiz-adv-x="1474" d="M82 61q0 -61 61 -61h230q61 0 61 61v230q0 61 -61 61h-230q-61 0 -61 -61v-230zM590 61q0 -61 61 -61h230q61 0 61 61v230q0 61 -61 61h-230q-61 0 -61 -61v-230zM1081 61q0 -61 62 -61h229q61 0 62 61v230q0 61 -62 61h-229q-61 0 -62 -61v-230z" />
<glyph unicode="&#x202f;" horiz-adv-x="428" />
<glyph unicode="&#x2039;" horiz-adv-x="755" d="M104 600q-41 45 0 86l404 404q43 43 90 0l55 -58q43 -43 0 -84l-288 -291q-16 -14 0 -24l288 -293q43 -43 0 -86l-55 -57q-47 -45 -90 0z" />
<glyph unicode="&#x203a;" horiz-adv-x="755" d="M102 254q-43 43 0 86l289 293q14 10 0 24l-289 291q-43 41 0 84l56 58q47 43 90 0l403 -404q41 -41 0 -86l-403 -403q-43 -45 -90 0z" />
<glyph unicode="&#x205f;" horiz-adv-x="534" />
<glyph unicode="&#x2122;" horiz-adv-x="2834" d="M1314 61q0 -61 62 -61h229q61 0 62 61v807q0 16 14 13q6 -2 8 -11l199 -817q12 -53 67 -53h136q55 0 67 53l199 817q4 14 16 9q6 -2 6 -11v-807q0 -61 62 -61h229q61 0 62 61v1311q0 61 -62 62h-424q-53 0 -65 -56l-146 -596q-2 -10 -7 -14t-10 0t-7 14l-146 596 q-12 55 -65 56h-424q-61 0 -62 -62v-1311zM20 1143q0 -61 62 -62h287q61 0 61 -61v-959q0 -61 62 -61h229q61 0 61 61v959q0 61 62 61h286q61 0 62 62v229q0 61 -62 62h-1048q-61 0 -62 -62v-229z" />
<glyph unicode="&#xe000;" horiz-adv-x="1435" d="M0 1435h1435v-1435h-1435v1435z" />
<glyph unicode="&#xfb01;" horiz-adv-x="1679" d="M1228 61q0 -61 62 -61h225q61 0 62 61v1311q0 61 -62 62h-225q-61 0 -62 -62v-1311zM102 61q0 -61 62 -61h242q61 0 61 61v418q0 61 61 62h338q61 0 62 61v229q0 61 -62 62h-338q-61 0 -61 61v66q0 61 61 61h516q61 0 62 62v229q0 61 -62 62h-880q-61 0 -62 -62v-1311z " />
<glyph unicode="&#xfb02;" horiz-adv-x="2185" d="M1228 61q0 -61 62 -61h809q61 0 61 61v230q0 61 -61 61h-457q-61 0 -61 62v958q0 61 -62 62h-229q-61 0 -62 -62v-1311zM102 61q0 -61 62 -61h242q61 0 61 61v418q0 61 61 62h338q61 0 62 61v229q0 61 -62 62h-338q-61 0 -61 61v66q0 61 61 61h516q61 0 62 62v229 q0 61 -62 62h-880q-61 0 -62 -62v-1311z" />
<glyph unicode="&#xfb03;" horiz-adv-x="2805" d="M2355 61q0 -61 62 -61h225q61 0 62 61v1311q0 61 -62 62h-225q-61 0 -62 -62v-1311zM1228 61q0 -61 62 -61h242q61 0 61 61v418q0 61 61 62h338q61 0 62 61v229q0 61 -62 62h-338q-61 0 -61 61v66q0 61 61 61h516q61 0 62 62v229q0 61 -62 62h-880q-61 0 -62 -62v-1311z M102 61q0 -61 62 -61h242q61 0 61 61v418q0 61 61 62h338q61 0 62 61v229q0 61 -62 62h-338q-61 0 -61 61v66q0 61 61 61h516q61 0 62 62v229q0 61 -62 62h-880q-61 0 -62 -62v-1311z" />
<glyph unicode="&#xfb04;" horiz-adv-x="3311" d="M2355 61q0 -61 62 -61h809q61 0 61 61v230q0 61 -61 61h-457q-61 0 -61 62v958q0 61 -62 62h-229q-61 0 -62 -62v-1311zM1228 61q0 -61 62 -61h242q61 0 61 61v418q0 61 61 62h338q61 0 62 61v229q0 61 -62 62h-338q-61 0 -61 61v66q0 61 61 61h516q61 0 62 62v229 q0 61 -62 62h-880q-61 0 -62 -62v-1311zM102 61q0 -61 62 -61h242q61 0 61 61v418q0 61 61 62h338q61 0 62 61v229q0 61 -62 62h-338q-61 0 -61 61v66q0 61 61 61h516q61 0 62 62v229q0 61 -62 62h-880q-61 0 -62 -62v-1311z" />
</font>
</defs>
</svg>
